<?xml version="1.0" standalone="no"?>
<!DOCTYPE svg PUBLIC "-//W3C//DTD SVG 1.1//EN" "http://www.w3.org/Graphics/SVG/1.1/DTD/svg11.dtd" >
<svg xmlns="http://www.w3.org/2000/svg" xmlns:xlink="http://www.w3.org/1999/xlink" version="1.1">
<metadata>
Created by FontForge 20150318 at Fri Jun 19 16:31:34 2015
 By uniteet7
HTF Gotham  Copr. 2003 The Hoefler Type Foundry, Inc. Info: www.typography.com
</metadata>
<defs>
<font id="GothamXLightItalic" horiz-adv-x="500" >
  <font-face 
    font-family="GothamXLightItalic"
    font-weight="200"
    font-style="italic"
    font-stretch="normal"
    units-per-em="1000"
    panose-1="2 0 6 3 4 0 0 9 0 4"
    ascent="800"
    descent="-200"
    x-height="504"
    cap-height="700"
    bbox="-123 -176 1213 893"
    underline-thickness="20"
    underline-position="-113"
    slope="-12"
    unicode-range="U+0020-FB02"
  />
<missing-glyph 
 />
    <glyph glyph-name="fi" unicode="fi" horiz-adv-x="572" 
d="M506 504h33l-136 -504h-32zM177 475h-77l8 29h77l22 82q11 41 27.5 68.5t37 44.5t44 24t49.5 7q53 0 93 -23l-9 -29q-41 22 -85 22q-40 0 -74 -25.5t-52 -94.5l-21 -76h183l-7 -29h-184l-127 -475h-32zM555 704h43l-17 -61h-43z" />
    <glyph glyph-name="fl" unicode="fl" horiz-adv-x="571" 
d="M177 475h-77l8 29h77l22 82q11 41 27.5 68.5t37 44.5t44 24t49.5 7q53 0 93 -23l-9 -29q-41 22 -85 22q-40 0 -74 -25.5t-52 -94.5l-21 -76h183l-7 -29h-184l-127 -475h-32zM567 730h32l-196 -730h-32z" />
    <glyph glyph-name=".notdef" 
 />
    <glyph glyph-name=".null" horiz-adv-x="0" 
 />
    <glyph glyph-name="nonmarkingreturn" horiz-adv-x="288" 
 />
    <glyph glyph-name="space" unicode=" " horiz-adv-x="288" 
 />
    <glyph glyph-name="exclam" unicode="!" horiz-adv-x="217" 
d="M34 65h48l-17 -65h-48zM186 607l25 93h36l-25 -93l-124 -424h-17z" />
    <glyph glyph-name="quotedbl" unicode="&#x22;" horiz-adv-x="346" 
d="M195 700h40v-3l-120 -251h-19zM344 700h40v-3l-120 -251h-19z" />
    <glyph glyph-name="numbersign" unicode="#" horiz-adv-x="667" 
d="M432 226l89 254h-227l-88 -254h226zM164 195h-117l8 31h119l89 254h-129l8 30h131l67 190h31l-66 -190h226l66 190h31l-66 -190h117l-8 -30h-120l-88 -254h129l-8 -31h-132l-68 -195h-31l68 195h-226l-68 -195h-31z" />
    <glyph glyph-name="dollar" unicode="$" horiz-adv-x="620" 
d="M296 30q50 0 88.5 13.5t64 35.5t38.5 50t13 57t-10.5 51t-30 39.5t-47.5 31.5t-64 28l-83 -305q8 -1 15.5 -1h15.5zM407 668q-9 2 -18.5 2h-20.5q-46 0 -82 -12.5t-61 -33t-38.5 -47.5t-13.5 -55q0 -29 11 -50t31 -37.5t49 -30t65 -26.5zM228 5q-66 11 -121.5 42.5
t-93.5 76.5l25 22q76 -92 199 -112l84 312q-41 15 -74.5 31.5t-57.5 36.5t-37 45.5t-13 59.5q0 35 16 68t46 58t73.5 40t97.5 15q21 0 44 -3l16 61h31l-18 -65q53 -11 96.5 -35t74.5 -56l-23 -23q-32 32 -71 54t-87 31l-40 -148q-8 -28 -15 -54.5t-12 -47.5q-6 -25 -12 -47
q39 -14 72 -30t57 -37t37 -48t13 -63t-16 -70t-47 -60.5t-76.5 -42.5t-104.5 -16q-8 0 -17 0.5t-17 0.5l-26 -99h-31z" />
    <glyph glyph-name="percent" unicode="%" horiz-adv-x="823" 
d="M588 22q32 0 60 16t48.5 42t32.5 59t12 67q0 52 -28 85.5t-77 33.5q-32 0 -60 -16t-48.5 -42t-32.5 -59t-12 -67q0 -52 28 -85.5t77 -33.5zM237 375q32 0 60 16t48.5 42t32.5 59t12 67q0 52 -28 86t-77 34q-32 0 -60 -16t-48.5 -42t-32.5 -59t-12 -67q0 -52 28.5 -86
t76.5 -34zM586 -8q-30 0 -55 11.5t-43 31t-28 46t-10 57.5q0 41 14.5 80t40 69t60 48.5t73.5 18.5q30 0 55 -11t43 -30.5t28 -46.5t10 -58q0 -41 -15 -80t-40.5 -69t-59.5 -48.5t-73 -18.5zM763 700h39l-691 -700h-40zM235 346q-30 0 -55 11t-43 30.5t-27.5 46.5t-9.5 58
q0 41 14.5 80t40 69t60 48.5t73.5 18.5q30 0 55 -11t42.5 -30.5t27.5 -46.5t10 -58q0 -41 -15 -80t-40.5 -69t-59.5 -48.5t-73 -18.5z" />
    <glyph glyph-name="ampersand" unicode="&#x26;" horiz-adv-x="682" 
d="M232 20q66 0 126.5 31t115.5 87l-168 237q-51 -13 -94.5 -31t-75.5 -43.5t-50 -58.5t-18 -76q0 -35 12.5 -62t35 -45.5t52 -28.5t64.5 -10zM321 404q107 29 162.5 69.5t55.5 100.5q0 48 -33.5 78t-88.5 30q-31 0 -58 -10.5t-47 -29.5t-31.5 -45t-11.5 -56
q0 -32 13.5 -65.5t38.5 -71.5zM491 115q-60 -60 -123 -92.5t-139 -32.5q-39 0 -74.5 11.5t-62.5 33.5t-43 54.5t-16 73.5q0 50 20.5 88t55.5 66.5t81.5 48t98.5 33.5q-25 38 -39.5 72.5t-14.5 68.5q0 37 14.5 68.5t39 54.5t58 36t71.5 13q34 0 62.5 -10t49 -28.5t31.5 -43.5
t11 -55q0 -69 -59.5 -116t-174.5 -78l157 -222q34 37 63.5 79.5t58.5 93.5l27 -15q-32 -53 -64 -97t-67 -84l92 -130l-25 -17z" />
    <glyph glyph-name="quotesingle" unicode="'" horiz-adv-x="198" 
d="M195 700h40v-3l-120 -251h-19z" />
    <glyph glyph-name="parenleft" unicode="(" horiz-adv-x="406" 
d="M270 -134q-35 28 -67 64t-56.5 80t-39 96t-14.5 113q0 75 24.5 148t74 139t124 120.5t174.5 92.5l11 -26q-96 -37 -166.5 -89.5t-116.5 -114.5t-68.5 -131t-22.5 -138q0 -58 13 -106.5t35.5 -89.5t51.5 -75t62 -62z" />
    <glyph glyph-name="parenright" unicode=")" horiz-adv-x="406" 
d="M-74 -110q96 37 166.5 89.5t116.5 114.5t68.5 131t22.5 138q0 58 -13 106.5t-35.5 89.5t-51.5 74.5t-62 62.5l19 21q35 -29 67 -64.5t56.5 -79.5t39 -96t14.5 -113q0 -75 -24.5 -148t-74 -139t-124 -121t-174.5 -92z" />
    <glyph glyph-name="asterisk" unicode="*" horiz-adv-x="431" 
d="M239 415l42 129l-129 -43l-8 29l134 28l-103 91l23 21l90 -101l28 132l29 -8l-42 -129l129 43l8 -29l-134 -28l103 -91l-23 -21l-90 101l-28 -132z" />
    <glyph glyph-name="plus" unicode="+" horiz-adv-x="587" 
d="M299 337h-206l8 30h206l57 212h32l-57 -212h206l-8 -30h-206l-57 -212h-32z" />
    <glyph glyph-name="comma" unicode="," horiz-adv-x="191" 
d="M-33 -73q26 8 39 26.5t19 46.5h-21l17 65h48l-15 -57q-13 -47 -31.5 -68t-50.5 -30z" />
    <glyph glyph-name="hyphen" unicode="-" horiz-adv-x="396" 
d="M86 315h256l-10 -35h-256z" />
    <glyph glyph-name="hyphen" unicode="&#xad;" horiz-adv-x="396" 
d="M86 315h256l-10 -35h-256z" />
    <glyph glyph-name="period" unicode="." horiz-adv-x="191" 
d="M21 65h48l-17 -65h-48z" />
    <glyph glyph-name="slash" unicode="/" horiz-adv-x="495" 
d="M611 798h36l-718 -926h-36z" />
    <glyph glyph-name="zero" unicode="0" horiz-adv-x="708" 
d="M320 19q69 0 127.5 37.5t101 98t67 137.5t24.5 156q0 49 -12.5 92t-37 74t-62 49t-88.5 18q-69 0 -127.5 -37.5t-101 -98t-67 -137.5t-24.5 -156q0 -50 12.5 -92.5t37 -73.5t62 -49t88.5 -18zM318 -12q-58 0 -101.5 20t-72.5 55t-43.5 83.5t-14.5 104.5q0 85 26.5 168
t74 148t112.5 105t143 40q58 0 101.5 -20t72.5 -55.5t44 -83.5t15 -104q0 -86 -26.5 -168.5t-74 -147.5t-113 -105t-143.5 -40z" />
    <glyph glyph-name="one" unicode="1" horiz-adv-x="321" 
d="M277 666l-147 -54l-3 30l167 63h27l-189 -705h-34z" />
    <glyph glyph-name="two" unicode="2" horiz-adv-x="571" 
d="M-15 23l425 333q67 54 98 96t31 92q0 28 -11 52.5t-32 43t-52 29t-71 10.5q-68 0 -118.5 -31.5t-88.5 -73.5l-24 20q21 24 46 45t53.5 36.5t61.5 25t71 9.5q47 0 84 -13t63 -35t39.5 -52.5t13.5 -64.5q0 -29 -8.5 -55t-26.5 -51t-45 -51t-64 -55l-386 -301h424l-9 -32
h-479z" />
    <glyph glyph-name="three" unicode="3" horiz-adv-x="575" 
d="M236 -11q-88 0 -147.5 36t-88.5 96l28 15q29 -54 80 -85.5t129 -31.5q49 0 92 13.5t74.5 38.5t50 60t18.5 78q0 65 -54 103.5t-161 38.5h-26l-7 19l333 298h-389l10 32h436l-7 -24l-329 -297q52 -1 94.5 -12.5t72.5 -33.5t46 -52.5t16 -69.5q0 -50 -21.5 -91t-58.5 -70
t-86.5 -45t-104.5 -16z" />
    <glyph glyph-name="four" unicode="4" horiz-adv-x="629" 
d="M434 208l118 443l-480 -443h362zM426 178h-399l-5 24l547 503h30l-132 -497h114l-8 -30h-114l-48 -178h-33z" />
    <glyph glyph-name="five" unicode="5" horiz-adv-x="587" 
d="M248 -12q-43 0 -79 10t-65.5 27.5t-51.5 40.5t-37 49l28 17q29 -49 79.5 -81.5t127.5 -32.5q52 0 96.5 17t76 45.5t49.5 66.5t18 80q0 39 -13.5 69t-38.5 50.5t-59 30.5t-74 10q-82 0 -169 -44l-20 16l112 341h370l-9 -32h-340l-94 -285q32 15 72.5 25t78.5 10
q48 0 88 -12.5t69.5 -37t45.5 -60t16 -80.5q0 -49 -21 -92.5t-57.5 -76.5t-87.5 -52t-111 -19z" />
    <glyph glyph-name="six" unicode="6" horiz-adv-x="629" 
d="M310 18q49 0 91.5 17.5t73 47.5t48 69.5t17.5 83.5q0 33 -11.5 62.5t-35 52t-59 36t-82.5 13.5q-52 0 -95 -17.5t-74 -45.5t-48 -64t-17 -72q0 -42 13.5 -73.5t37.5 -55.5q27 -27 63.5 -40.5t77.5 -13.5zM308 -12q-48 0 -90.5 16.5t-73.5 46.5q-28 28 -45 70.5t-17 100.5
q0 60 10.5 117t30 107t46.5 93.5t61 76.5q48 49 103.5 72.5t115.5 23.5q61 0 110.5 -24.5t86.5 -69.5l-25 -21q-35 41 -77.5 62.5t-96.5 21.5q-53 0 -100 -19.5t-92 -64.5q-61 -61 -94 -140.5t-42 -164.5q12 26 34 51t52 44.5t67.5 31.5t81.5 12q53 0 94.5 -16t69.5 -42.5
t42.5 -61.5t14.5 -74q0 -50 -20 -95.5t-56 -79.5t-85 -54t-106 -20z" />
    <glyph glyph-name="seven" unicode="7" horiz-adv-x="550" 
d="M555 668h-418l9 32h458l-6 -23l-496 -677h-39z" />
    <glyph glyph-name="eight" unicode="8" horiz-adv-x="631" 
d="M296 21q54 0 97 12.5t73.5 35t46.5 53.5t16 67q0 33 -15.5 61.5t-43.5 50t-67 34t-86 12.5q-53 0 -97 -14t-75.5 -38t-49 -55.5t-17.5 -65.5q0 -35 16 -63t44.5 -48t69 -31t88.5 -11zM364 373q48 0 88.5 13t69 35.5t44.5 53t16 64.5q0 30 -14.5 56t-40 44.5t-60 29
t-74.5 10.5q-46 0 -84.5 -12t-66 -34t-43 -51.5t-15.5 -63.5q0 -30 13.5 -56.5t37.5 -46t57 -31t72 -11.5zM295 -10q-56 0 -102.5 13.5t-79.5 37.5t-51.5 57t-18.5 73q0 39 16.5 73t46.5 59.5t71 42.5t90 23q-52 18 -85 57t-33 93q0 40 18.5 75t51.5 61t78 40.5t97 14.5
q47 0 87.5 -12.5t70.5 -35t47.5 -53.5t17.5 -68q0 -36 -14.5 -67.5t-40.5 -56t-61 -41t-77 -22.5q30 -9 55.5 -25t44.5 -37t29.5 -47t10.5 -56q0 -43 -19.5 -79.5t-55 -63t-85 -41.5t-109.5 -15z" />
    <glyph glyph-name="nine" unicode="9" horiz-adv-x="629" 
d="M328 296q51 0 94 18t73.5 46.5t48 65t17.5 73.5q0 41 -13 72.5t-38 56.5q-27 26 -63 39.5t-78 13.5q-50 0 -91.5 -18t-72.5 -48t-48.5 -69.5t-17.5 -83.5q0 -33 11.5 -63t35 -53t59 -36.5t83.5 -13.5zM231 -12q-60 0 -111 24.5t-89 71.5l26 21q72 -87 176 -87
q53 0 99.5 20t91.5 65q62 61 94.5 139.5t42.5 163.5q-12 -25 -33.5 -50t-51.5 -45.5t-68 -33t-83 -12.5q-54 0 -95 16t-69 43t-42.5 62.5t-14.5 74.5q0 51 20.5 96.5t56 80t84.5 54.5t107 20q48 0 90.5 -17t72.5 -47q28 -28 45.5 -70.5t17.5 -99.5q0 -60 -10.5 -117
t-30 -107.5t-47 -93.5t-60.5 -77q-49 -48 -104 -71.5t-115 -23.5z" />
    <glyph glyph-name="colon" unicode=":" horiz-adv-x="197" 
d="M25 65h48l-18 -65h-48zM142 504h48l-17 -65h-48z" />
    <glyph glyph-name="semicolon" unicode=";" horiz-adv-x="197" 
d="M-30 -73q26 8 39 26.5t20 46.5h-22l18 65h48l-16 -57q-6 -23 -13.5 -39.5t-17.5 -28t-22.5 -19t-28.5 -11.5zM142 504h48l-17 -65h-48z" />
    <glyph glyph-name="semicolon" unicode="&#x37e;" horiz-adv-x="197" 
d="M-30 -73q26 8 39 26.5t20 46.5h-22l18 65h48l-16 -57q-6 -23 -13.5 -39.5t-17.5 -28t-22.5 -19t-28.5 -11.5zM142 504h48l-17 -65h-48z" />
    <glyph glyph-name="less" unicode="&#x3c;" horiz-adv-x="616" 
d="M81 341l6 22l525 237l-10 -38l-474 -213l360 -213l-9 -32z" />
    <glyph glyph-name="equal" unicode="=" horiz-adv-x="616" 
d="M92 253h430l-9 -32h-430zM154 484h430l-8 -32h-430z" />
    <glyph glyph-name="greater" unicode="&#x3e;" horiz-adv-x="616" 
d="M56 142l475 213l-361 213l9 32l398 -237l-6 -22l-525 -237z" />
    <glyph glyph-name="question" unicode="?" horiz-adv-x="514" 
d="M151 65h48l-18 -65h-48zM230 342l5 4q53 4 100 18t82.5 37.5t56 57.5t20.5 78q0 63 -45 102t-122 39q-66 0 -117 -28t-88 -64l-21 22q42 41 97.5 71t130.5 30q47 0 84.5 -13.5t63 -36.5t39 -54t13.5 -67q0 -50 -22 -88t-58.5 -65t-85 -43.5t-102.5 -23.5l-45 -135h-19z
" />
    <glyph glyph-name="at" unicode="@" horiz-adv-x="961" 
d="M440 108q42 0 79.5 19.5t65.5 50.5t44.5 68t16.5 72q0 63 -34 101.5t-101 38.5q-43 0 -78.5 -18.5t-61 -49.5t-40 -70t-14.5 -79q0 -61 32.5 -97t90.5 -36zM462 -160q-92 0 -164.5 28t-123.5 77.5t-78 118.5t-27 150q0 104 40 195t106.5 158.5t154 106t183.5 38.5
q87 0 155.5 -28.5t116 -76t72.5 -110t25 -130.5q0 -74 -19 -128.5t-48.5 -90t-64 -53t-65.5 -17.5t-51.5 10t-32.5 25.5t-16 36t-3 41.5q-14 -23 -33 -43.5t-42.5 -36.5t-51.5 -25t-60 -9q-35 0 -63 12t-48.5 33.5t-31.5 51t-11 65.5q0 47 18 92t49 80t73 56.5t89 21.5
q36 0 63 -10.5t46 -28t30 -40.5t15 -47l33 108l30 -8l-65 -211q-21 -67 -5 -108t70 -41q27 0 56.5 15.5t54.5 48t41.5 82.5t16.5 118q0 64 -23.5 122t-67.5 102t-108 70.5t-145 26.5q-91 0 -173.5 -37t-145.5 -100.5t-100.5 -150t-37.5 -185.5q0 -75 25 -139.5t72.5 -111.5
t115.5 -73.5t155 -26.5q57 0 112 11t106 36l11 -22q-54 -26 -109.5 -37.5t-120.5 -11.5z" />
    <glyph glyph-name="A" unicode="A" horiz-adv-x="764" 
d="M586 235l-85 430l-318 -430h403zM493 705h31l142 -705h-34l-40 204h-432l-150 -204h-39z" />
    <glyph glyph-name="B" unicode="B" horiz-adv-x="722" 
d="M353 31q61 0 108.5 13t79 36.5t48 56t16.5 70.5q0 32 -15 56.5t-41.5 41t-63 25t-79.5 8.5h-245l-82 -307h274zM407 369q116 0 182 46t66 125q0 63 -48.5 96t-129.5 33h-227l-80 -300h237zM225 700h257q45 0 83.5 -10.5t66 -30.5t43 -49.5t15.5 -66.5q0 -42 -16 -75
t-43 -57t-62 -38.5t-72 -19.5q63 -14 102.5 -50t39.5 -97q0 -43 -18.5 -80.5t-55 -65.5t-90.5 -44t-125 -16h-313z" />
    <glyph glyph-name="C" unicode="C" horiz-adv-x="731" 
d="M373 -12q-57 0 -108 19.5t-89 55.5t-60.5 88.5t-22.5 118.5q0 86 32.5 165.5t88.5 141t132.5 98.5t163.5 37q91 0 156 -41.5t97 -110.5l-30 -14q-31 60 -86 97.5t-138 37.5q-81 0 -150.5 -34.5t-121 -91.5t-81 -131t-29.5 -153q0 -59 19 -105.5t53 -79t79 -50t98 -17.5
q85 0 146 31.5t108 79.5l22 -21q-24 -25 -52.5 -47t-63 -38.5t-75 -26t-88.5 -9.5z" />
    <glyph glyph-name="D" unicode="D" horiz-adv-x="766" 
d="M265 31q101 0 183.5 31.5t142.5 91.5q48 48 74 112t26 138q0 58 -18 102.5t-50 76.5q-42 43 -106.5 64.5t-142.5 21.5h-124l-171 -638h186zM225 700h146q86 0 158 -23.5t120 -71.5q37 -37 57 -86t20 -113q0 -81 -28.5 -150.5t-81.5 -122.5q-63 -63 -155 -98t-201 -35
h-223z" />
    <glyph glyph-name="E" unicode="E" horiz-adv-x="656" 
d="M225 700h490l-9 -31h-456l-81 -301h413l-8 -31h-413l-82 -306h461l-8 -31h-495z" />
    <glyph glyph-name="F" unicode="F" horiz-adv-x="640" 
d="M225 700h487l-9 -31h-453l-83 -310h410l-9 -31h-409l-88 -328h-34z" />
    <glyph glyph-name="G" unicode="G" horiz-adv-x="782" 
d="M392 -12q-67 0 -121.5 21.5t-93.5 60.5t-60 92.5t-21 118.5q0 83 32 161t89 138t134.5 96t168.5 36q49 0 88 -10t70 -27.5t54 -40.5t40 -48l-27 -18q-16 24 -36.5 44.5t-48 35.5t-62.5 24t-80 9q-83 0 -154 -33.5t-122.5 -89t-81 -127.5t-29.5 -149q0 -59 18.5 -107.5
t52.5 -83t83 -54t109 -19.5q64 0 119.5 18.5t97.5 45.5l69 241h-241l8 33h275l-83 -293q-54 -35 -116 -55t-131 -20z" />
    <glyph glyph-name="H" unicode="H" horiz-adv-x="754" 
d="M225 700h34l-90 -332h477l90 332h34l-188 -700h-34l90 337h-477l-90 -337h-34z" />
    <glyph glyph-name="I" unicode="I" horiz-adv-x="256" 
d="M231 700h34l-188 -700h-34z" />
    <glyph glyph-name="J" unicode="J" horiz-adv-x="530" 
d="M188 -11q-41 0 -73.5 12.5t-56 34t-39.5 50.5t-24 61l30 10q17 -60 56.5 -98.5t105.5 -38.5q78 0 132 54q27 27 46 65t33 92l126 469h34l-128 -476q-15 -57 -36 -98.5t-51 -71.5q-65 -65 -155 -65z" />
    <glyph glyph-name="K" unicode="K" horiz-adv-x="709" 
d="M225 700h34l-125 -466l589 466h51l-386 -303l209 -397h-38l-198 377l-240 -189l-50 -188h-34z" />
    <glyph glyph-name="L" unicode="L" horiz-adv-x="590" 
d="M225 700h34l-180 -669h422l-8 -31h-456z" />
    <glyph glyph-name="M" unicode="M" horiz-adv-x="864" 
d="M225 700h28l181 -425l409 425h36l-188 -700h-34l172 641l-405 -420h-2l-180 420l-172 -641h-33z" />
    <glyph glyph-name="N" unicode="N" horiz-adv-x="784" 
d="M225 700h31l337 -647l174 647h33l-188 -700h-28l-340 652l-175 -652h-32z" />
    <glyph glyph-name="O" unicode="O" horiz-adv-x="841" 
d="M398 18q77 0 143.5 33t115.5 87.5t77 125t28 145.5q0 57 -19 107t-54.5 86.5t-84.5 57.5t-109 21q-77 0 -143.5 -32.5t-115.5 -87t-77 -125t-28 -146.5q0 -57 19.5 -106.5t54.5 -86.5t84 -58t109 -21zM397 -12q-66 0 -121.5 23.5t-95 64t-61.5 96t-22 118.5q0 82 31 158
t85 134.5t127 94t156 35.5q67 0 122 -23.5t95 -64t62 -96t22 -118.5q0 -82 -31.5 -158t-85.5 -134.5t-127 -94t-156 -35.5z" />
    <glyph glyph-name="P" unicode="P" horiz-adv-x="666" 
d="M347 301q72 0 128 15.5t94.5 43t58 66t19.5 85.5q0 65 -39 104q-54 54 -169 54h-189l-99 -368h196zM225 700h215q131 0 194 -63q47 -45 47 -124q0 -56 -23 -101t-66.5 -76.5t-106 -48.5t-140.5 -17h-202l-72 -270h-34z" />
    <glyph glyph-name="Q" unicode="Q" horiz-adv-x="841" 
d="M398 18q58 0 110 19t96 52l-125 139l25 21l123 -140q63 56 99 134.5t36 165.5q0 57 -19 107t-54.5 86.5t-84.5 57.5t-109 21q-77 0 -143.5 -32.5t-115.5 -87t-77 -125t-28 -146.5q0 -57 19.5 -106.5t54.5 -86.5t84 -58t109 -21zM624 66q-48 -37 -105.5 -57.5
t-121.5 -20.5q-66 0 -121.5 23.5t-95 64t-61.5 96t-22 118.5q0 82 31 158t85 134.5t127 94t156 35.5q67 0 122 -23.5t95 -64t62 -96t22 -118.5q0 -94 -40 -179t-109 -145l72 -80l-24 -21z" />
    <glyph glyph-name="R" unicode="R" horiz-adv-x="720" 
d="M401 330q80 0 134.5 19.5t86.5 51.5q25 25 37 56t12 65q0 70 -50.5 108.5t-147.5 38.5h-223l-91 -339h242zM225 700h250q110 0 170 -45.5t60 -129.5q0 -42 -15 -78.5t-44 -65.5q-34 -34 -88 -55t-126 -24l157 -302h-39l-154 299h-245l-80 -299h-34z" />
    <glyph glyph-name="S" unicode="S" horiz-adv-x="639" 
d="M301 -10q-89 0 -161.5 35.5t-117.5 96.5l26 19q45 -58 110 -89t147 -31q50 0 90 14t67.5 36.5t42 52t14.5 61.5q0 31 -12.5 54t-35.5 41t-55 33t-70 30q-43 16 -78 33t-60.5 37t-39.5 46t-14 61q0 37 16.5 71.5t48 60.5t77.5 42t104 16q76 0 137 -28t103 -75l-26 -22
q-39 45 -94 69.5t-123 24.5q-50 0 -88.5 -13.5t-65.5 -35t-41 -49.5t-14 -58q0 -29 13 -50.5t36.5 -39t55 -32t69.5 -28.5q41 -16 76 -33t60.5 -38.5t40 -49t14.5 -64.5q0 -38 -16.5 -73.5t-49 -63.5t-79.5 -44.5t-107 -16.5z" />
    <glyph glyph-name="T" unicode="T" horiz-adv-x="595" 
d="M387 669h-249l8 31h533l-8 -31h-250l-179 -669h-34z" />
    <glyph glyph-name="U" unicode="U" horiz-adv-x="754" 
d="M346 -11q-56 0 -102 14.5t-78.5 43t-50.5 69.5t-18 95q0 28 4.5 56.5t12.5 60.5l99 372h34l-102 -384q-8 -26 -11 -52.5t-3 -49.5q0 -94 58 -144t159 -50q51 0 99 18.5t87 58.5q32 32 59 82t47 124l106 397h34l-109 -405q-20 -77 -48.5 -130t-64.5 -89q-44 -44 -98 -65.5
t-114 -21.5z" />
    <glyph glyph-name="V" unicode="V" horiz-adv-x="714" 
d="M150 700h35l107 -663l465 663h39l-499 -705h-28z" />
    <glyph glyph-name="W" unicode="W" horiz-adv-x="1058" 
d="M156 700h34l53 -655l387 657h26l43 -657l397 655h37l-432 -705h-28l-44 647l-385 -647h-28z" />
    <glyph glyph-name="X" unicode="X" horiz-adv-x="680" 
d="M347 360l-190 340h36l178 -321l328 321h43l-356 -346l197 -354h-37l-183 334l-342 -334h-43z" />
    <glyph glyph-name="Y" unicode="Y" horiz-adv-x="666" 
d="M320 290l-183 410h36l170 -384l377 384h45l-413 -418l-76 -282h-34z" />
    <glyph glyph-name="Z" unicode="Z" horiz-adv-x="666" 
d="M-6 19l664 650h-473l9 31h526l-6 -19l-664 -650h489l-8 -31h-542z" />
    <glyph glyph-name="bracketleft" unicode="[" horiz-adv-x="418" 
d="M232 700h267l-7 -25h-235l-209 -780h235l-7 -25h-267z" />
    <glyph glyph-name="backslash" unicode="\" horiz-adv-x="483" 
d="M154 798h30l221 -926h-30z" />
    <glyph glyph-name="bracketright" unicode="]" horiz-adv-x="418" 
d="M-57 -105h236l208 780h-235l7 25h267l-223 -830h-267z" />
    <glyph glyph-name="asciicircum" unicode="^" 
d="M356 703h25l101 -209h-28l-91 176l-185 -176h-35z" />
    <glyph glyph-name="underscore" unicode="_" horiz-adv-x="569" 
d="M-104 -124h574l-8 -29h-574z" />
    <glyph glyph-name="grave" unicode="`" 
d="M299 703l40 20l59 -128h-22z" />
    <glyph glyph-name="a" unicode="a" horiz-adv-x="568" 
d="M194 17q44 0 84 14.5t72 39.5t54.5 59t33.5 74l12 45q-44 12 -96 19.5t-107 7.5q-86 0 -137 -39t-51 -105q0 -28 11 -49.5t30 -36t43 -22t51 -7.5zM188 -12q-31 0 -60 9t-52 26.5t-37 43.5t-14 60q0 42 16.5 75t46.5 56.5t72 35.5t92 12q54 0 107.5 -8.5t97.5 -21.5l6 19
q8 30 8 57q0 64 -45.5 97t-123.5 33q-42 0 -77.5 -7.5t-65.5 -18.5l-8 29q32 11 70.5 19t83.5 8q44 0 80.5 -10t62.5 -30t40 -49t14 -68q0 -31 -9 -65l-78 -290h-32l29 107q-33 -51 -88.5 -85t-135.5 -34z" />
    <glyph glyph-name="b" unicode="b" horiz-adv-x="652" 
d="M311 18q56 0 102.5 24.5t79.5 64t51 90t18 101.5q0 41 -13 75.5t-36 59.5t-55 39t-71 14q-56 0 -105 -25.5t-85.5 -65t-57.5 -87.5t-21 -94q0 -42 13.5 -77.5t39 -62t61 -41.5t79.5 -15zM312 -12q-48 0 -85 14.5t-63 38t-42.5 53.5t-22.5 60l-42 -154h-32l196 730h32
l-92 -342q13 21 36 44t52.5 41.5t65 30.5t75.5 12q45 0 83 -16.5t65.5 -45t42.5 -67.5t15 -85q0 -61 -21.5 -117.5t-59.5 -100t-90 -70t-113 -26.5z" />
    <glyph glyph-name="c" unicode="c" horiz-adv-x="556" 
d="M270 -12q-41 0 -81 14.5t-71 42.5t-50 68.5t-19 92.5q0 62 24 118t65 99t94.5 68t113.5 25q39 0 70 -10t56 -27t42.5 -38.5t29.5 -44.5l-27 -15q-11 20 -27 39t-37 33.5t-48 23.5t-61 9q-52 0 -99.5 -22.5t-83.5 -61t-57 -89t-21 -106.5q0 -45 16 -80.5t42.5 -59.5
t60 -36.5t69.5 -12.5q54 0 96.5 21.5t77.5 53.5l22 -20q-38 -36 -87 -60.5t-110 -24.5z" />
    <glyph glyph-name="d" unicode="d" horiz-adv-x="652" 
d="M262 18q56 0 105 25.5t85.5 65t57.5 87.5t21 94q0 42 -13.5 77.5t-39 62t-61 41.5t-78.5 15q-56 0 -102.5 -24.5t-79.5 -64t-51.5 -90t-18.5 -101.5q0 -41 13 -75.5t36 -59.5t55 -39t71 -14zM259 -12q-45 0 -83 16.5t-65 45t-42.5 67.5t-15.5 84q0 61 21.5 117.5
t59.5 100.5t90 70.5t113 26.5q48 0 85 -14.5t63 -38.5t42.5 -53.5t22.5 -59.5l98 362h32l-191 -712h-32l31 115q-14 -21 -36 -43.5t-51.5 -41t-65.5 -30.5t-76 -12z" />
    <glyph glyph-name="e" unicode="e" horiz-adv-x="585" 
d="M497 271q2 11 3.5 23t1.5 26q0 32 -9 62t-28.5 53t-50.5 37t-74 14q-45 0 -85.5 -17t-73 -46.5t-55.5 -68.5t-34 -83h405zM87 242q-3 -21 -3 -42q0 -83 50.5 -132.5t137.5 -49.5q96 0 181 70l19 -23q-45 -38 -95 -57.5t-105 -19.5q-50 0 -91.5 15t-70.5 42.5t-45 66.5
t-16 86q0 61 23 118t62.5 101.5t93 71.5t113.5 27q51 0 87.5 -16.5t60.5 -43.5t35 -62.5t11 -73.5q-1 -21 -3.5 -40.5t-8.5 -37.5h-436z" />
    <glyph glyph-name="f" unicode="f" horiz-adv-x="340" 
d="M177 475h-77l8 29h77l22 82q11 41 27.5 68.5t37 44.5t44 24t49.5 7q53 0 93 -23l-9 -29q-41 22 -85 22q-40 0 -74 -25.5t-52 -94.5l-21 -76h183l-7 -29h-184l-127 -475h-32z" />
    <glyph glyph-name="g" unicode="g" horiz-adv-x="650" 
d="M275 68q56 0 103.5 21.5t82 56t54 76t19.5 82.5q0 35 -13.5 67.5t-39 58t-61 40.5t-79.5 15q-52 0 -97 -20t-78.5 -54.5t-53 -79.5t-19.5 -95q0 -38 14.5 -69t39.5 -53t58 -34t70 -12zM237 -161q-68 0 -130.5 25.5t-107.5 68.5l23 23q40 -40 96.5 -63t120.5 -23
q52 0 93.5 16t70.5 45q24 24 41 58t31 83l22 82q-36 -48 -93 -82.5t-134 -34.5q-42 0 -80 14t-67 39.5t-46.5 62t-17.5 80.5q0 57 22.5 108.5t60.5 90.5t89.5 61.5t110.5 22.5q47 0 83 -14.5t62 -37.5t41.5 -51.5t22.5 -56.5l40 148h32l-118 -440q-15 -55 -34 -90.5
t-45 -62.5q-36 -35 -82.5 -53.5t-106.5 -18.5z" />
    <glyph glyph-name="h" unicode="h" horiz-adv-x="607" 
d="M221 730h32l-92 -341q16 25 36.5 48t46.5 40.5t57.5 28t69.5 10.5q82 0 125.5 -45t43.5 -118q0 -19 -3.5 -39.5t-9.5 -41.5l-72 -272h-32l73 273q5 20 7.5 39.5t2.5 37.5q0 61 -35 98.5t-107 37.5q-36 0 -72 -14.5t-67.5 -41t-55.5 -64.5t-37 -85l-75 -281h-32z" />
    <glyph glyph-name="i" unicode="i" horiz-adv-x="232" 
d="M167 504h32l-135 -504h-33zM215 704h43l-17 -61h-43z" />
    <glyph glyph-name="j" unicode="j" horiz-adv-x="232" 
d="M-72 -165q-15 0 -27.5 2t-23.5 6l9 29q7 -2 18.5 -4.5t20.5 -2.5q33 0 56.5 19t35.5 64l150 556h32l-151 -560q-15 -57 -47 -83t-73 -26zM215 704h43l-17 -61h-43z" />
    <glyph glyph-name="k" unicode="k" horiz-adv-x="550" 
d="M221 730h32l-149 -556l418 330h46l-285 -223l157 -281h-36l-146 262l-165 -129l-36 -133h-32z" />
    <glyph glyph-name="l" unicode="l" horiz-adv-x="231" 
d="M227 730h33l-196 -730h-33z" />
    <glyph glyph-name="m" unicode="m" horiz-adv-x="934" 
d="M160 504h32l-31 -115q15 24 34 47t42.5 41t52 28.5t62.5 10.5q35 0 62.5 -11t46.5 -30.5t29.5 -45.5t12.5 -57q16 29 37 55t47.5 46t58.5 31.5t68 11.5t64.5 -11.5t48.5 -32.5t30.5 -50t10.5 -63q0 -17 -4 -40t-10 -47l-73 -272h-32l73 273q6 22 9 43.5t3 40.5
q0 58 -32 93.5t-95 35.5q-34 0 -67.5 -16t-62 -44t-50.5 -66.5t-34 -82.5l-74 -277h-32l73 273q6 22 9.5 43.5t3.5 40.5q0 58 -32.5 93.5t-95.5 35.5q-34 0 -67.5 -16t-62 -44t-50.5 -66.5t-34 -82.5l-74 -277h-32z" />
    <glyph glyph-name="n" unicode="n" horiz-adv-x="607" 
d="M160 504h32l-31 -115q16 25 36.5 48t46.5 40.5t57.5 28t69.5 10.5q82 0 125.5 -45t43.5 -118q0 -19 -3.5 -39.5t-9.5 -41.5l-72 -272h-32l73 273q5 20 7.5 39.5t2.5 37.5q0 61 -35 98.5t-107 37.5q-36 0 -72 -14.5t-67.5 -41t-55.5 -64.5t-37 -85l-75 -281h-32z" />
    <glyph glyph-name="o" unicode="o" horiz-adv-x="626" 
d="M281 18q54 0 101.5 23t83 61t55.5 86.5t20 100.5q0 43 -14 79.5t-40 62.5t-62 40.5t-80 14.5q-55 0 -102.5 -23t-83 -61.5t-55.5 -87t-20 -99.5q0 -44 14 -80t40 -62t62.5 -40.5t80.5 -14.5zM278 -12q-50 0 -92 17t-72 47t-47 71t-17 89q0 57 22.5 111.5t62 97.5t94 69
t118.5 26q50 0 92 -17t72.5 -47t47.5 -71t17 -89q0 -58 -23 -112.5t-63 -97t-94.5 -68.5t-117.5 -26z" />
    <glyph glyph-name="p" unicode="p" horiz-adv-x="652" 
d="M311 18q56 0 102.5 24.5t79.5 64t51 90t18 101.5q0 41 -13 75.5t-36 59.5t-55 39t-71 14q-56 0 -105 -25.5t-85.5 -65t-57.5 -87.5t-21 -94q0 -42 13.5 -77.5t39 -62t61 -41.5t79.5 -15zM160 504h32l-31 -116q13 21 36 44t52.5 41.5t65 30.5t75.5 12q45 0 83 -16.5
t65.5 -45t42.5 -67.5t15 -85q0 -61 -21.5 -117.5t-59.5 -100t-90 -70t-113 -26.5q-48 0 -85 14.5t-63 38t-42.5 53.5t-22.5 60l-85 -314h-32z" />
    <glyph glyph-name="q" unicode="q" horiz-adv-x="652" 
d="M262 18q56 0 105 25.5t85.5 65t57.5 87.5t21 94q0 42 -13.5 77.5t-39 62t-61 41.5t-78.5 15q-56 0 -102.5 -24.5t-79.5 -64t-51.5 -90t-18.5 -101.5q0 -41 13 -75.5t36 -59.5t55 -39t71 -14zM488 116q-14 -21 -36 -44t-51.5 -41.5t-65.5 -30.5t-76 -12q-45 0 -83 16.5
t-65 45t-42.5 67.5t-15.5 84q0 61 21.5 117.5t59.5 100.5t90 70.5t113 26.5q48 0 85 -14.5t63 -38t42.5 -53.5t22.5 -60l42 154h32l-182 -680h-32z" />
    <glyph glyph-name="r" unicode="r" horiz-adv-x="362" 
d="M160 504h32l-40 -152q49 77 116.5 120.5t138.5 41.5l-9 -33h-2q-38 0 -80.5 -18t-81 -50t-69 -77.5t-45.5 -99.5l-63 -236h-32z" />
    <glyph glyph-name="s" unicode="s" horiz-adv-x="492" 
d="M212 -10q-57 0 -112.5 21t-97.5 62l23 23q41 -38 88.5 -57t101.5 -19q34 0 61.5 9t47.5 24.5t31 35t11 40.5t-7.5 36.5t-22.5 28.5t-38.5 24.5t-55.5 23.5q-64 24 -103 53t-39 79q0 27 12.5 52.5t36 45t57.5 31t77 11.5q45 0 94 -17t86 -49l-21 -24q-35 29 -77.5 44.5
t-83.5 15.5q-36 0 -63.5 -9t-46 -24t-28 -34t-9.5 -38q0 -40 31.5 -62.5t93.5 -46.5q33 -13 59.5 -26.5t44.5 -29.5t27.5 -35.5t9.5 -45.5q0 -28 -13.5 -53.5t-38 -45.5t-59.5 -32t-77 -12z" />
    <glyph glyph-name="t" unicode="t" horiz-adv-x="382" 
d="M196 -9q-54 0 -84 24t-30 72q0 11 2 24t5 26l90 338h-77l8 29h77l45 169h33l-46 -169h182l-8 -29h-181l-91 -339q-3 -12 -5 -24t-2 -22q0 -35 23 -52t65 -17q17 0 35 3.5t38 11.5l-9 -33q-18 -7 -34 -9.5t-36 -2.5z" />
    <glyph glyph-name="u" unicode="u" horiz-adv-x="607" 
d="M236 -12q-82 0 -125.5 45t-43.5 118q0 19 3.5 39.5t8.5 41.5l73 272h32l-73 -273q-11 -41 -11 -77q0 -61 35.5 -98.5t107.5 -37.5q36 0 72 14.5t67 41t55.5 64.5t36.5 85l75 281h33l-135 -504h-32l31 115q-16 -25 -37 -48t-47 -40.5t-57.5 -28t-68.5 -10.5z" />
    <glyph glyph-name="v" unicode="v" horiz-adv-x="559" 
d="M98 504h34l80 -468l329 468h38l-363 -508h-26z" />
    <glyph glyph-name="w" unicode="w" horiz-adv-x="821" 
d="M105 504h33l37 -460l282 463h27l33 -463l281 460h36l-314 -508h-28l-35 458l-280 -458h-27z" />
    <glyph glyph-name="x" unicode="x" horiz-adv-x="539" 
d="M253 260l-137 244h36l123 -225l242 225h43l-270 -248l143 -256h-36l-130 236l-254 -236h-43z" />
    <glyph glyph-name="y" unicode="y" horiz-adv-x="571" 
d="M26 -163q-32 0 -57 8.5t-44 21.5l18 26q17 -12 39 -19.5t46 -7.5q19 0 38 5.5t40 20.5t44.5 40.5t52.5 66.5l-108 505h34l98 -473l326 473h38l-358 -514q-33 -48 -61 -77.5t-52.5 -46.5t-47 -23t-46.5 -6z" />
    <glyph glyph-name="z" unicode="z" horiz-adv-x="511" 
d="M-21 18l494 458h-359l8 28h410l-5 -18l-494 -458h374l-8 -28h-425z" />
    <glyph glyph-name="braceleft" unicode="{" horiz-adv-x="456" 
d="M297 -141q-80 20 -115.5 62t-35.5 103q0 30 5.5 56.5t15.5 61.5q12 40 12 69q0 26 -20 44t-71 18h-28l7 27h29q37 0 63.5 9.5t46 31t33 56t23.5 84.5t25.5 91t44 71.5t74 48.5t116.5 22l-2 -27q-61 -4 -100.5 -20.5t-64.5 -43.5t-38 -64t-22 -82q-10 -51 -23 -86t-31 -57
t-41.5 -33.5t-54.5 -15.5q35 -8 51.5 -28t16.5 -47q0 -14 -3.5 -31.5t-9.5 -38.5q-8 -27 -14.5 -56.5t-6.5 -57.5q0 -55 29.5 -90t98.5 -53z" />
    <glyph glyph-name="bar" unicode="|" horiz-adv-x="269" 
d="M142 798h29v-926h-29v926z" />
    <glyph glyph-name="braceright" unicode="}" horiz-adv-x="456" 
d="M-47 -113q61 4 100.5 20.5t64.5 43.5t38 64t22 82q10 51 23 86t31 57t41.5 33.5t54.5 15.5q-35 8 -51.5 28t-16.5 47q0 14 3.5 32t9.5 38q8 27 14.5 56.5t6.5 57.5q0 55 -29.5 90t-98.5 53l10 24q80 -20 115.5 -62t35.5 -103q0 -30 -5.5 -56.5t-15.5 -61.5
q-5 -20 -8.5 -36.5t-3.5 -32.5q0 -26 20 -44t71 -18h28l-7 -27h-29q-37 0 -63.5 -9.5t-46 -31t-33 -56t-23.5 -84.5t-25.5 -91t-44 -71.5t-74.5 -48.5t-116 -22z" />
    <glyph glyph-name="asciitilde" unicode="~" horiz-adv-x="448" 
d="M88 259q20 46 42 67.5t50 21.5q19 0 34.5 -11t30.5 -26q14 -14 26 -22.5t25 -8.5q17 0 32.5 15t33.5 50l22 -9q-20 -47 -42 -68t-50 -21q-19 0 -34.5 11t-30.5 25q-14 15 -26 23.5t-25 8.5q-17 0 -32.5 -15t-33.5 -50z" />
    <glyph glyph-name="nonbreakingspace" unicode="&#xa0;" horiz-adv-x="288" 
 />
    <glyph glyph-name="exclamdown" unicode="&#xa1;" horiz-adv-x="217" 
d="M48 93l123 424h17l-104 -424l-25 -93h-36zM205 700h48l-18 -65h-48z" />
    <glyph glyph-name="cent" unicode="&#xa2;" horiz-adv-x="560" 
d="M403 587q-5 1 -12 1h-14q-53 0 -101 -22.5t-84 -61t-57 -89.5t-21 -108q0 -64 31 -108t80 -64zM213 107q-57 23 -95 74.5t-38 124.5q0 63 24 119.5t65 99.5t95.5 68t114.5 25q9 0 18 -0.5t17 -1.5l35 90h32l-38 -96q53 -13 86 -44.5t51 -67.5l-27 -15q-19 33 -47.5 60.5
t-74.5 38.5l-180 -456q24 -6 51 -6q57 0 101 21t79 54l21 -20q-38 -37 -87.5 -61t-115.5 -24q-29 0 -59 8l-41 -104h-32z" />
    <glyph glyph-name="sterling" unicode="&#xa3;" horiz-adv-x="609" 
d="M-2 18l93 13l76 282h-89l8 32h89l35 129q15 54 36.5 97t50.5 72q64 66 155 66q65 0 109.5 -31.5t70.5 -81.5l-29 -16q-24 45 -60.5 71.5t-93.5 26.5q-73 0 -127 -54q-51 -51 -80 -157l-33 -122h300l-8 -32h-301l-75 -282h374l-8 -31h-497z" />
    <glyph glyph-name="currency" unicode="&#xa4;" horiz-adv-x="700" 
d="M380 -12q-51 0 -94 18.5t-75 53t-50 83.5t-19 111h-94l8 31h86q3 73 23 139h-72l8 32h75q21 55 53 101.5t73 81t91 54t106 19.5q43 0 78.5 -12.5t63 -34.5t46.5 -50.5t30 -60.5l-30 -12q-11 29 -27.5 54.5t-40.5 44t-55 29.5t-69 11q-48 0 -91.5 -17t-79.5 -47t-64.5 -71
t-47.5 -90h318l-8 -32h-322q-11 -32 -16.5 -67.5t-7.5 -71.5h309l-8 -31h-301q1 -53 16 -96.5t41.5 -74t64 -47.5t83.5 -17q62 0 111.5 25t97.5 79l23 -20q-49 -57 -106 -86t-127 -29z" />
    <glyph glyph-name="yen" unicode="&#xa5;" horiz-adv-x="692" 
d="M290 122h-208l8 30h208l35 129h-208l9 30h192l-172 389h37l169 -383l372 383h44l-380 -389h188l-9 -30h-208l-35 -129h208l-8 -30h-208l-32 -122h-34z" />
    <glyph glyph-name="section" unicode="&#xa7;" horiz-adv-x="619" 
d="M387 237q75 0 115.5 28.5t40.5 64.5q0 16 -6.5 30t-23 27.5t-44 27t-69.5 27.5q-62 21 -117 21q-75 0 -116 -28.5t-41 -64.5q0 -16 7 -30t23.5 -27.5t44 -27t69.5 -27.5q61 -21 117 -21zM287 -10q-35 0 -67.5 7t-61 18t-51.5 26t-39 30l22 24q32 -29 83 -52t118 -23
q59 0 96 24.5t37 63.5q0 21 -11.5 38t-32.5 31t-49.5 25.5t-61.5 23.5q-38 13 -70.5 26.5t-56 30t-37 37t-13.5 47.5t14 50t41 39t65.5 24.5t87.5 5.5q-39 18 -63.5 44t-24.5 61q0 27 13 48.5t35.5 37.5t53.5 24.5t68 8.5q36 0 68.5 -7t61 -18t51.5 -26t39 -30l-23 -24
q-31 29 -82.5 52t-117.5 23q-59 0 -96 -24.5t-37 -63.5q0 -21 11.5 -38t32.5 -31t49.5 -25.5t61.5 -23.5q38 -13 70 -27t55.5 -30.5t37 -36.5t13.5 -47t-14 -50t-40.5 -39t-65 -24.5t-87.5 -5.5q39 -18 63.5 -44t24.5 -61q0 -27 -13 -48.5t-35.5 -37.5t-54 -24.5t-68.5 -8.5
z" />
    <glyph glyph-name="dieresis" unicode="&#xa8;" 
d="M258 670h49l-17 -64h-49zM406 670h49l-17 -64h-49z" />
    <glyph glyph-name="copyright" unicode="&#xa9;" horiz-adv-x="829" 
d="M446 165q-39 0 -72 15t-57.5 40.5t-38 60t-13.5 73.5t13.5 74t38 61t58 41t72.5 15q51 0 83 -17.5t58 -42.5l-20 -21q-21 21 -50.5 37.5t-71.5 16.5q-33 0 -60.5 -13t-48 -35t-31.5 -51.5t-11 -63.5q0 -33 11.5 -63t32 -52t48.5 -35t60 -13q43 0 71.5 15.5t52.5 40.5
l19 -19q-26 -27 -59.5 -45.5t-84.5 -18.5zM440 9q71 0 133 27t108 73.5t72.5 108.5t26.5 132t-26.5 132.5t-72 108.5t-107.5 73t-133 27t-133 -27t-108 -73.5t-72.5 -108.5t-26.5 -132q0 -71 26.5 -133t72 -108t107.5 -73t133 -27zM440 -12q-75 0 -141 28.5t-115 77.5
t-77 115t-28 141t28.5 140.5t77.5 115t115 78t141 28.5t141 -28.5t115 -77.5t77.5 -115t28.5 -141t-28.5 -140.5t-77.5 -115t-115.5 -78t-141.5 -28.5z" />
    <glyph glyph-name="ordfeminine" unicode="&#xaa;" horiz-adv-x="408" 
d="M221 435q46 0 82.5 28t48.5 70l5 19q-23 7 -49 11t-55 4q-45 0 -71 -20.5t-26 -55.5q0 -28 19 -42t46 -14zM82 333h246l-6 -25h-246zM215 412q-34 0 -60.5 20t-26.5 56q0 47 35 74t92 27q29 0 56.5 -4.5t50.5 -11.5l3 9q2 7 3 15t1 14q0 35 -23 51t-65 16
q-23 0 -42.5 -4.5t-36.5 -10.5l-5 24q19 7 40.5 11.5t47.5 4.5q51 0 81 -23t30 -65q0 -15 -5 -37l-43 -160h-27l15 58q-20 -27 -49.5 -45.5t-71.5 -18.5z" />
    <glyph glyph-name="guillemotleft" unicode="&#xab;" horiz-adv-x="483" 
d="M43 252l2 6l223 206l22 -17l-208 -197l100 -191l-25 -14zM227 252l1 6l224 206l22 -17l-208 -197l99 -191l-25 -14z" />
    <glyph glyph-name="registered" unicode="&#xae;" horiz-adv-x="829" 
d="M459 356q49 0 78.5 21.5t29.5 59.5t-28 58.5t-77 20.5h-126v-160h123zM307 543h157q60 0 96 -28t36 -76q0 -47 -29 -73t-78 -33l122 -156h-37l-118 152h-120v-152h-29v366zM440 9q71 0 133 27t108 73.5t72.5 108.5t26.5 132t-26.5 132.5t-72 108.5t-107.5 73t-133 27
t-133 -27t-108 -73.5t-72.5 -108.5t-26.5 -132q0 -71 26.5 -133t72 -108t107.5 -73t133 -27zM440 -12q-75 0 -141 28.5t-115 77.5t-77 115t-28 141t28.5 140.5t77.5 115t115 78t141 28.5t141 -28.5t115 -77.5t77.5 -115t28.5 -141t-28.5 -140.5t-77.5 -115t-115.5 -78
t-141.5 -28.5z" />
    <glyph glyph-name="macron" unicode="&#xaf;" 
d="M212 645h282l-8 -32h-282z" />
    <glyph glyph-name="macron" unicode="&#x2c9;" 
d="M212 645h282l-8 -32h-282z" />
    <glyph glyph-name="degree" unicode="&#xb0;" horiz-adv-x="404" 
d="M235 442q27 0 51 11.5t41.5 31t28 44.5t10.5 52q0 42 -26.5 69t-68.5 27q-27 0 -50.5 -11.5t-41 -31t-28 -44.5t-10.5 -52q0 -42 26 -69t68 -27zM233 413q-27 0 -49.5 9.5t-39 26t-25.5 39t-9 48.5q0 33 13 63.5t35 54t52 37.5t63 14q27 0 49.5 -9.5t39 -26t25.5 -38.5
t9 -48q0 -33 -13 -64t-35 -54.5t-51.5 -37.5t-63.5 -14z" />
    <glyph glyph-name="plusminus" unicode="&#xb1;" horiz-adv-x="581" 
d="M247 -12q-78 0 -143.5 32t-102.5 91l29 17q35 -54 92 -81.5t127 -27.5q51 0 91.5 14t69 37.5t44 54t15.5 63.5q0 37 -15.5 65t-42.5 47t-63.5 28.5t-78.5 9.5h-59l8 31h63q55 0 102.5 12t82.5 34.5t54.5 54.5t19.5 71q0 31 -13.5 57t-37.5 44t-56.5 28t-71.5 10
q-60 0 -109 -20.5t-89 -54.5l-21 23q42 37 97.5 60t121.5 23q46 0 85.5 -12t68 -34.5t44.5 -53.5t16 -68q0 -42 -17 -74.5t-46 -56.5t-68 -39t-83 -22q65 -15 104 -57.5t39 -103.5q0 -41 -18.5 -77.5t-52.5 -64.5t-81.5 -44t-104.5 -16z" />
    <glyph glyph-name="acute" unicode="&#xb4;" 
d="M388 723l39 -20l-136 -108h-30z" />
    <glyph glyph-name="mu" unicode="&#xb5;" horiz-adv-x="841" 
d="M398 18q58 0 110 19t96 52l-125 139l25 21l123 -140q63 56 99 134.5t36 165.5q0 57 -19 107t-54.5 86.5t-84.5 57.5t-109 21q-77 0 -143.5 -32.5t-115.5 -87t-77 -125t-28 -146.5q0 -57 19.5 -106.5t54.5 -86.5t84 -58t109 -21zM624 66q-48 -37 -105.5 -57.5
t-121.5 -20.5q-66 0 -121.5 23.5t-95 64t-61.5 96t-22 118.5q0 82 31 158t85 134.5t127 94t156 35.5q67 0 122 -23.5t95 -64t62 -96t22 -118.5q0 -94 -40 -179t-109 -145l72 -80l-24 -21z" />
    <glyph glyph-name="mu" unicode="&#x3bc;" horiz-adv-x="841" 
d="M398 18q58 0 110 19t96 52l-125 139l25 21l123 -140q63 56 99 134.5t36 165.5q0 57 -19 107t-54.5 86.5t-84.5 57.5t-109 21q-77 0 -143.5 -32.5t-115.5 -87t-77 -125t-28 -146.5q0 -57 19.5 -106.5t54.5 -86.5t84 -58t109 -21zM624 66q-48 -37 -105.5 -57.5
t-121.5 -20.5q-66 0 -121.5 23.5t-95 64t-61.5 96t-22 118.5q0 82 31 158t85 134.5t127 94t156 35.5q67 0 122 -23.5t95 -64t62 -96t22 -118.5q0 -94 -40 -179t-109 -145l72 -80l-24 -21z" />
    <glyph glyph-name="paragraph" unicode="&#xb6;" horiz-adv-x="469" 
d="M335 271q-109 2 -168 51t-59 134q0 57 22.5 102t63.5 76.5t100 48.5t133 17h58l-188 -700h-35z" />
    <glyph glyph-name="periodcentered" unicode="&#xb7;" horiz-adv-x="191" 
d="M91 327h48l-17 -65h-48z" />
    <glyph glyph-name="periodcentered" unicode="&#x2219;" horiz-adv-x="191" 
d="M91 327h48l-17 -65h-48z" />
    <glyph glyph-name="cedilla" unicode="&#xb8;" 
d="M78 -127l124 134h26l-119 -151z" />
    <glyph glyph-name="ordmasculine" unicode="&#xba;" horiz-adv-x="408" 
d="M262 437q28 0 52.5 12t43 31.5t29 45t10.5 52.5q0 46 -27 73.5t-72 27.5q-28 0 -53 -12t-43.5 -31.5t-29 -44.5t-10.5 -52q0 -47 27.5 -74.5t72.5 -27.5zM83 333h274l-7 -25h-273zM259 411q-55 0 -90 35.5t-35 90.5q0 32 13 62.5t35.5 54t53 37.5t65.5 14q55 0 90 -35.5
t35 -90.5q0 -32 -13 -62.5t-35.5 -54t-53 -37.5t-65.5 -14z" />
    <glyph glyph-name="guillemotright" unicode="&#xbb;" horiz-adv-x="483" 
d="M9 62l207 196l-99 192l25 13l113 -206l-1 -7l-224 -205zM192 62l208 196l-99 192l24 13l114 -206l-1 -7l-224 -205z" />
    <glyph glyph-name="questiondown" unicode="&#xbf;" horiz-adv-x="514" 
d="M237 -9q-47 0 -84 13.5t-62.5 36.5t-39 54t-13.5 67q0 50 22 88t58.5 65t85 43.5t102.5 23.5l45 135h18l-33 -159l-4 -4q-54 -5 -101 -18.5t-82.5 -37t-56 -57.5t-20.5 -78q0 -63 45 -102t122 -39q66 0 117.5 28t87.5 64l21 -22q-41 -41 -97 -71t-131 -30zM385 700h48
l-18 -65h-48z" />
    <glyph glyph-name="Agrave" unicode="&#xc0;" horiz-adv-x="764" 
d="M450 873l40 20l59 -128h-22zM586 235l-85 430l-318 -430h403zM493 705h31l142 -705h-34l-40 204h-432l-150 -204h-39z" />
    <glyph glyph-name="Aacute" unicode="&#xc1;" horiz-adv-x="764" 
d="M625 893l39 -20l-136 -108h-30zM586 235l-85 430l-318 -430h403zM493 705h31l142 -705h-34l-40 204h-432l-150 -204h-39z" />
    <glyph glyph-name="Acircumflex" unicode="&#xc2;" horiz-adv-x="764" 
d="M543 887h24l70 -122h-26l-63 85l-110 -85h-31zM586 235l-85 430l-318 -430h403zM493 705h31l142 -705h-34l-40 204h-432l-150 -204h-39z" />
    <glyph glyph-name="Atilde" unicode="&#xc3;" horiz-adv-x="764" 
d="M389 777q20 46 42 67.5t50 21.5q19 0 34.5 -11t30.5 -26q14 -14 26 -22.5t25 -8.5q17 0 32.5 15t33.5 50l22 -9q-20 -47 -42 -68t-50 -21q-19 0 -34.5 11t-30.5 25q-14 15 -26 23.5t-25 8.5q-17 0 -32.5 -15t-33.5 -50zM586 235l-85 430l-318 -430h403zM493 705h31
l142 -705h-34l-40 204h-432l-150 -204h-39z" />
    <glyph glyph-name="Adieresis" unicode="&#xc4;" horiz-adv-x="764" 
d="M450 840h49l-17 -64h-49zM598 840h49l-17 -64h-49zM586 235l-85 430l-318 -430h403zM493 705h31l142 -705h-34l-40 204h-432l-150 -204h-39z" />
    <glyph glyph-name="Aring" unicode="&#xc5;" horiz-adv-x="764" 
d="M590 235l-85 430l-318 -430h403zM521 698q31 0 55.5 22.5t24.5 56.5q0 27 -18 44t-50 17q-31 0 -55 -22.5t-24 -56.5q0 -27 17.5 -44t49.5 -17zM481 683q-24 9 -38 29t-14 47q0 21 9 39.5t23.5 32t33.5 21.5t39 8q42 0 67 -23t25 -60q0 -39 -27.5 -67t-64.5 -33l136 -677
h-34l-40 204h-432l-150 -204h-39z" />
    <glyph glyph-name="AE" unicode="&#xc6;" horiz-adv-x="1041" 
d="M491 235l117 434h-18l-387 -434h288zM578 700h516l-9 -31h-443l-81 -301h399l-8 -31h-400l-82 -306h449l-8 -31h-483l55 204h-307l-183 -204h-41z" />
    <glyph glyph-name="Ccedilla" unicode="&#xc7;" horiz-adv-x="731" 
d="M264 -144l-31 17l108 117q-51 5 -96.5 26.5t-79 57.5t-53 85.5t-19.5 110.5q0 86 32.5 165.5t88.5 141t132.5 98.5t163.5 37q91 0 156 -41.5t97 -110.5l-30 -14q-31 60 -86 97.5t-138 37.5q-81 0 -150.5 -34.5t-121 -91.5t-81 -131t-29.5 -153q0 -59 19 -105.5t53 -79
t79 -50t98 -17.5q85 0 146 31.5t108 79.5l22 -21q-24 -25 -52.5 -47t-63 -38.5t-75 -26t-88.5 -9.5h-6z" />
    <glyph glyph-name="Egrave" unicode="&#xc8;" horiz-adv-x="656" 
d="M412 873l40 20l59 -128h-22zM225 700h490l-9 -31h-456l-81 -301h413l-8 -31h-413l-82 -306h461l-8 -31h-495z" />
    <glyph glyph-name="Eacute" unicode="&#xc9;" horiz-adv-x="656" 
d="M549 893l39 -20l-136 -108h-30zM225 700h490l-9 -31h-456l-81 -301h413l-8 -31h-413l-82 -306h461l-8 -31h-495z" />
    <glyph glyph-name="Ecircumflex" unicode="&#xca;" horiz-adv-x="656" 
d="M496 887h24l70 -122h-26l-63 85l-110 -85h-31zM225 700h490l-9 -31h-456l-81 -301h413l-8 -31h-413l-82 -306h461l-8 -31h-495z" />
    <glyph glyph-name="Edieresis" unicode="&#xcb;" horiz-adv-x="656" 
d="M403 840h49l-17 -64h-49zM551 840h49l-17 -64h-49zM225 700h490l-9 -31h-456l-81 -301h413l-8 -31h-413l-82 -306h461l-8 -31h-495z" />
    <glyph glyph-name="Igrave" unicode="&#xcc;" horiz-adv-x="256" 
d="M187 873l40 20l59 -128h-22zM231 700h34l-188 -700h-34z" />
    <glyph glyph-name="Iacute" unicode="&#xcd;" horiz-adv-x="256" 
d="M358 893l39 -20l-136 -108h-30zM231 700h34l-188 -700h-34z" />
    <glyph glyph-name="Icircumflex" unicode="&#xce;" horiz-adv-x="256" 
d="M280 887h24l70 -122h-26l-63 85l-110 -85h-31zM231 700h34l-188 -700h-34z" />
    <glyph glyph-name="Idieresis" unicode="&#xcf;" horiz-adv-x="256" 
d="M188 840h49l-17 -64h-49zM336 840h49l-17 -64h-49zM231 700h34l-188 -700h-34z" />
    <glyph glyph-name="Eth" unicode="&#xd0;" horiz-adv-x="778" 
d="M277 31q101 0 183.5 31.5t142.5 91.5q48 48 74 112t26 138q0 58 -18 102.5t-50 76.5q-42 43 -106.5 64.5t-142.5 21.5h-124l-81 -301h243l-8 -32h-244l-81 -305h186zM139 336h-76l8 32h76l90 332h146q86 0 158 -23.5t120 -71.5q37 -37 57 -86t20 -113q0 -81 -28.5 -150.5
t-81.5 -122.5q-63 -63 -155 -98t-201 -35h-223z" />
    <glyph glyph-name="Ntilde" unicode="&#xd1;" horiz-adv-x="784" 
d="M378 777q20 46 42 67.5t50 21.5q19 0 34.5 -11t30.5 -26q14 -14 26 -22.5t25 -8.5q17 0 32.5 15t33.5 50l22 -9q-20 -47 -42 -68t-50 -21q-19 0 -34.5 11t-30.5 25q-14 15 -26 23.5t-25 8.5q-17 0 -32.5 -15t-33.5 -50zM225 700h31l337 -647l174 647h33l-188 -700h-28
l-340 652l-175 -652h-32z" />
    <glyph glyph-name="Ograve" unicode="&#xd2;" horiz-adv-x="841" 
d="M473 873l40 20l59 -128h-22zM398 18q77 0 143.5 33t115.5 87.5t77 125t28 145.5q0 57 -19 107t-54.5 86.5t-84.5 57.5t-109 21q-77 0 -143.5 -32.5t-115.5 -87t-77 -125t-28 -146.5q0 -57 19.5 -106.5t54.5 -86.5t84 -58t109 -21zM397 -12q-66 0 -121.5 23.5t-95 64
t-61.5 96t-22 118.5q0 82 31 158t85 134.5t127 94t156 35.5q67 0 122 -23.5t95 -64t62 -96t22 -118.5q0 -82 -31.5 -158t-85.5 -134.5t-127 -94t-156 -35.5z" />
    <glyph glyph-name="Oacute" unicode="&#xd3;" horiz-adv-x="841" 
d="M605 893l39 -20l-136 -108h-30zM398 18q77 0 143.5 33t115.5 87.5t77 125t28 145.5q0 57 -19 107t-54.5 86.5t-84.5 57.5t-109 21q-77 0 -143.5 -32.5t-115.5 -87t-77 -125t-28 -146.5q0 -57 19.5 -106.5t54.5 -86.5t84 -58t109 -21zM397 -12q-66 0 -121.5 23.5t-95 64
t-61.5 96t-22 118.5q0 82 31 158t85 134.5t127 94t156 35.5q67 0 122 -23.5t95 -64t62 -96t22 -118.5q0 -82 -31.5 -158t-85.5 -134.5t-127 -94t-156 -35.5z" />
    <glyph glyph-name="Ocircumflex" unicode="&#xd4;" horiz-adv-x="841" 
d="M559 887h24l70 -122h-26l-63 85l-110 -85h-31zM398 18q77 0 143.5 33t115.5 87.5t77 125t28 145.5q0 57 -19 107t-54.5 86.5t-84.5 57.5t-109 21q-77 0 -143.5 -32.5t-115.5 -87t-77 -125t-28 -146.5q0 -57 19.5 -106.5t54.5 -86.5t84 -58t109 -21zM397 -12
q-66 0 -121.5 23.5t-95 64t-61.5 96t-22 118.5q0 82 31 158t85 134.5t127 94t156 35.5q67 0 122 -23.5t95 -64t62 -96t22 -118.5q0 -82 -31.5 -158t-85.5 -134.5t-127 -94t-156 -35.5z" />
    <glyph glyph-name="Otilde" unicode="&#xd5;" horiz-adv-x="841" 
d="M390 777q20 46 42 67.5t50 21.5q19 0 34.5 -11t30.5 -26q14 -14 26 -22.5t25 -8.5q17 0 32.5 15t33.5 50l22 -9q-20 -47 -42 -68t-50 -21q-19 0 -34.5 11t-30.5 25q-14 15 -26 23.5t-25 8.5q-17 0 -32.5 -15t-33.5 -50zM398 18q77 0 143.5 33t115.5 87.5t77 125t28 145.5
q0 57 -19 107t-54.5 86.5t-84.5 57.5t-109 21q-77 0 -143.5 -32.5t-115.5 -87t-77 -125t-28 -146.5q0 -57 19.5 -106.5t54.5 -86.5t84 -58t109 -21zM397 -12q-66 0 -121.5 23.5t-95 64t-61.5 96t-22 118.5q0 82 31 158t85 134.5t127 94t156 35.5q67 0 122 -23.5t95 -64
t62 -96t22 -118.5q0 -82 -31.5 -158t-85.5 -134.5t-127 -94t-156 -35.5z" />
    <glyph glyph-name="Odieresis" unicode="&#xd6;" horiz-adv-x="841" 
d="M456 840h49l-17 -64h-49zM604 840h49l-17 -64h-49zM398 18q77 0 143.5 33t115.5 87.5t77 125t28 145.5q0 57 -19 107t-54.5 86.5t-84.5 57.5t-109 21q-77 0 -143.5 -32.5t-115.5 -87t-77 -125t-28 -146.5q0 -57 19.5 -106.5t54.5 -86.5t84 -58t109 -21zM397 -12
q-66 0 -121.5 23.5t-95 64t-61.5 96t-22 118.5q0 82 31 158t85 134.5t127 94t156 35.5q67 0 122 -23.5t95 -64t62 -96t22 -118.5q0 -82 -31.5 -158t-85.5 -134.5t-127 -94t-156 -35.5z" />
    <glyph glyph-name="Oslash" unicode="&#xd8;" horiz-adv-x="841" 
d="M397 18q77 0 143.5 33t115.5 87.5t77 125t28 145.5q0 43 -10.5 82t-30.5 72l-534 -447q35 -45 89 -71.5t122 -26.5zM704 586q-35 45 -89 70t-121 25q-77 0 -143.5 -32.5t-115.5 -87t-77 -125t-28 -146.5q0 -84 40 -150zM396 -12q-75 0 -134.5 28.5t-100.5 78.5l-120 -100
h-44l148 124q-24 36 -37 79.5t-13 91.5q0 82 31.5 158t85.5 134.5t127 94t156 35.5q74 0 133 -28.5t100 -77.5l118 99h44l-145 -121q24 -37 37.5 -81t13.5 -93q0 -82 -31.5 -158t-85.5 -134.5t-127 -94t-156 -35.5z" />
    <glyph glyph-name="Ugrave" unicode="&#xd9;" horiz-adv-x="754" 
d="M432 873l40 20l59 -128h-22zM346 -11q-56 0 -102 14.5t-78.5 43t-50.5 69.5t-18 95q0 28 4.5 56.5t12.5 60.5l99 372h34l-102 -384q-8 -26 -11 -52.5t-3 -49.5q0 -94 58 -144t159 -50q51 0 99 18.5t87 58.5q32 32 59 82t47 124l106 397h34l-109 -405q-20 -77 -48.5 -130
t-64.5 -89q-44 -44 -98 -65.5t-114 -21.5z" />
    <glyph glyph-name="Uacute" unicode="&#xda;" horiz-adv-x="754" 
d="M580 893l39 -20l-136 -108h-30zM346 -11q-56 0 -102 14.5t-78.5 43t-50.5 69.5t-18 95q0 28 4.5 56.5t12.5 60.5l99 372h34l-102 -384q-8 -26 -11 -52.5t-3 -49.5q0 -94 58 -144t159 -50q51 0 99 18.5t87 58.5q32 32 59 82t47 124l106 397h34l-109 -405
q-20 -77 -48.5 -130t-64.5 -89q-44 -44 -98 -65.5t-114 -21.5z" />
    <glyph glyph-name="Ucircumflex" unicode="&#xdb;" horiz-adv-x="754" 
d="M527 887h24l70 -122h-26l-63 85l-110 -85h-31zM346 -11q-56 0 -102 14.5t-78.5 43t-50.5 69.5t-18 95q0 28 4.5 56.5t12.5 60.5l99 372h34l-102 -384q-8 -26 -11 -52.5t-3 -49.5q0 -94 58 -144t159 -50q51 0 99 18.5t87 58.5q32 32 59 82t47 124l106 397h34l-109 -405
q-20 -77 -48.5 -130t-64.5 -89q-44 -44 -98 -65.5t-114 -21.5z" />
    <glyph glyph-name="Udieresis" unicode="&#xdc;" horiz-adv-x="754" 
d="M427 834h49l-17 -64h-49zM575 834h49l-17 -64h-49zM346 -11q-56 0 -102 14.5t-78.5 43t-50.5 69.5t-18 95q0 28 4.5 56.5t12.5 60.5l99 372h34l-102 -384q-8 -26 -11 -52.5t-3 -49.5q0 -94 58 -144t159 -50q51 0 99 18.5t87 58.5q32 32 59 82t47 124l106 397h34
l-109 -405q-20 -77 -48.5 -130t-64.5 -89q-44 -44 -98 -65.5t-114 -21.5z" />
    <glyph glyph-name="Yacute" unicode="&#xdd;" horiz-adv-x="666" 
d="M530 893l39 -20l-136 -108h-30zM319 290l-183 410h36l170 -384l377 384h45l-413 -418l-76 -282h-34z" />
    <glyph glyph-name="Thorn" unicode="&#xde;" horiz-adv-x="669" 
d="M312 169q72 0 128 15.5t94.5 43t58 66t19.5 85.5q0 65 -39 104q-54 54 -170 54h-188l-99 -368h196zM225 700h33l-35 -132h181q132 0 195 -63q47 -45 47 -124q0 -56 -23 -101t-66.5 -76.5t-106 -48.5t-140.5 -17h-202l-37 -138h-34z" />
    <glyph glyph-name="germandbls" unicode="&#xdf;" horiz-adv-x="591" 
d="M215 28q65 0 115.5 13.5t85 36.5t52.5 55t18 68q0 64 -48.5 100t-136.5 53l8 28q109 22 169.5 68.5t60.5 127.5q0 27 -9.5 50.5t-27.5 41t-44.5 27.5t-60.5 10q-75 0 -128 -57t-78 -150l-134 -500h-32l136 509q30 106 86 162q30 30 68.5 47.5t82.5 17.5q39 0 71 -11.5
t55.5 -32.5t36.5 -50t13 -64q0 -46 -17.5 -81t-47 -60.5t-68.5 -42.5t-82 -27q32 -8 61 -21t51.5 -33.5t35.5 -48t13 -63.5q0 -44 -22 -81.5t-62.5 -64.5t-98.5 -42.5t-130 -14.5z" />
    <glyph glyph-name="agrave" unicode="&#xe0;" horiz-adv-x="568" 
d="M293 703l40 20l59 -128h-22zM194 17q44 0 84 14.5t72 39.5t54.5 59t33.5 74l12 45q-44 12 -96 19.5t-107 7.5q-86 0 -137 -39t-51 -105q0 -28 11 -49.5t30 -36t43 -22t51 -7.5zM188 -12q-31 0 -60 9t-52 26.5t-37 43.5t-14 60q0 42 16.5 75t46.5 56.5t72 35.5t92 12
q54 0 107.5 -8.5t97.5 -21.5l6 19q8 30 8 57q0 64 -45.5 97t-123.5 33q-42 0 -77.5 -7.5t-65.5 -18.5l-8 29q32 11 70.5 19t83.5 8q44 0 80.5 -10t62.5 -30t40 -49t14 -68q0 -31 -9 -65l-78 -290h-32l29 107q-33 -51 -88.5 -85t-135.5 -34z" />
    <glyph glyph-name="aacute" unicode="&#xe1;" horiz-adv-x="568" 
d="M434 723l39 -20l-136 -108h-30zM194 17q44 0 84 14.5t72 39.5t54.5 59t33.5 74l12 45q-44 12 -96 19.5t-107 7.5q-86 0 -137 -39t-51 -105q0 -28 11 -49.5t30 -36t43 -22t51 -7.5zM188 -12q-31 0 -60 9t-52 26.5t-37 43.5t-14 60q0 42 16.5 75t46.5 56.5t72 35.5t92 12
q54 0 107.5 -8.5t97.5 -21.5l6 19q8 30 8 57q0 64 -45.5 97t-123.5 33q-42 0 -77.5 -7.5t-65.5 -18.5l-8 29q32 11 70.5 19t83.5 8q44 0 80.5 -10t62.5 -30t40 -49t14 -68q0 -31 -9 -65l-78 -290h-32l29 107q-33 -51 -88.5 -85t-135.5 -34z" />
    <glyph glyph-name="acircumflex" unicode="&#xe2;" horiz-adv-x="568" 
d="M387 717h24l70 -122h-26l-63 85l-110 -85h-31zM194 17q44 0 84 14.5t72 39.5t54.5 59t33.5 74l12 45q-44 12 -96 19.5t-107 7.5q-86 0 -137 -39t-51 -105q0 -28 11 -49.5t30 -36t43 -22t51 -7.5zM188 -12q-31 0 -60 9t-52 26.5t-37 43.5t-14 60q0 42 16.5 75t46.5 56.5
t72 35.5t92 12q54 0 107.5 -8.5t97.5 -21.5l6 19q8 30 8 57q0 64 -45.5 97t-123.5 33q-42 0 -77.5 -7.5t-65.5 -18.5l-8 29q32 11 70.5 19t83.5 8q44 0 80.5 -10t62.5 -30t40 -49t14 -68q0 -31 -9 -65l-78 -290h-32l29 107q-33 -51 -88.5 -85t-135.5 -34z" />
    <glyph glyph-name="atilde" unicode="&#xe3;" horiz-adv-x="568" 
d="M229 607q20 46 42 67.5t50 21.5q19 0 34.5 -11t30.5 -26q14 -14 26 -22.5t25 -8.5q17 0 32.5 15t33.5 50l22 -9q-20 -47 -42 -68t-50 -21q-19 0 -34.5 11t-30.5 25q-14 15 -26 23.5t-25 8.5q-17 0 -32.5 -15t-33.5 -50zM194 17q44 0 84 14.5t72 39.5t54.5 59t33.5 74
l12 45q-44 12 -96 19.5t-107 7.5q-86 0 -137 -39t-51 -105q0 -28 11 -49.5t30 -36t43 -22t51 -7.5zM188 -12q-31 0 -60 9t-52 26.5t-37 43.5t-14 60q0 42 16.5 75t46.5 56.5t72 35.5t92 12q54 0 107.5 -8.5t97.5 -21.5l6 19q8 30 8 57q0 64 -45.5 97t-123.5 33
q-42 0 -77.5 -7.5t-65.5 -18.5l-8 29q32 11 70.5 19t83.5 8q44 0 80.5 -10t62.5 -30t40 -49t14 -68q0 -31 -9 -65l-78 -290h-32l29 107q-33 -51 -88.5 -85t-135.5 -34z" />
    <glyph glyph-name="adieresis" unicode="&#xe4;" horiz-adv-x="568" 
d="M285 670h49l-17 -64h-49zM433 670h49l-17 -64h-49zM194 17q44 0 84 14.5t72 39.5t54.5 59t33.5 74l12 45q-44 12 -96 19.5t-107 7.5q-86 0 -137 -39t-51 -105q0 -28 11 -49.5t30 -36t43 -22t51 -7.5zM188 -12q-31 0 -60 9t-52 26.5t-37 43.5t-14 60q0 42 16.5 75
t46.5 56.5t72 35.5t92 12q54 0 107.5 -8.5t97.5 -21.5l6 19q8 30 8 57q0 64 -45.5 97t-123.5 33q-42 0 -77.5 -7.5t-65.5 -18.5l-8 29q32 11 70.5 19t83.5 8q44 0 80.5 -10t62.5 -30t40 -49t14 -68q0 -31 -9 -65l-78 -290h-32l29 107q-33 -51 -88.5 -85t-135.5 -34z" />
    <glyph glyph-name="aring" unicode="&#xe5;" horiz-adv-x="568" 
d="M381 617q32 0 56 22.5t24 56.5q0 27 -17.5 44t-49.5 17t-56 -22.5t-24 -56.5q0 -27 17.5 -44t49.5 -17zM381 595q-42 0 -67 23t-25 60q0 21 9 39.5t23.5 32t33.5 21.5t39 8q42 0 67 -23t25 -60q0 -21 -9 -39.5t-23.5 -32t-33.5 -21.5t-39 -8zM194 17q44 0 84 14.5
t72 39.5t54.5 59t33.5 74l12 45q-44 12 -96 19.5t-107 7.5q-86 0 -137 -39t-51 -105q0 -28 11 -49.5t30 -36t43 -22t51 -7.5zM188 -12q-31 0 -60 9t-52 26.5t-37 43.5t-14 60q0 42 16.5 75t46.5 56.5t72 35.5t92 12q54 0 107.5 -8.5t97.5 -21.5l6 19q8 30 8 57
q0 64 -45.5 97t-123.5 33q-42 0 -77.5 -7.5t-65.5 -18.5l-8 29q32 11 70.5 19t83.5 8q44 0 80.5 -10t62.5 -30t40 -49t14 -68q0 -31 -9 -65l-78 -290h-32l29 107q-33 -51 -88.5 -85t-135.5 -34z" />
    <glyph glyph-name="ae" unicode="&#xe6;" horiz-adv-x="979" 
d="M451 249q-43 13 -96 20t-107 7q-85 0 -137 -38.5t-52 -103.5q0 -29 11 -50.5t30.5 -36.5t44.5 -22.5t54 -7.5q70 0 136 36t116 100q-4 20 -4 47q0 12 1 24.5t3 24.5zM891 271q2 11 4 23t2 26q0 32 -9 62t-28.5 53t-50.5 37t-74 14q-45 0 -85.5 -17t-73 -46.5t-55.5 -68.5
t-34 -83h404zM459 122q-53 -63 -120.5 -98.5t-142.5 -35.5q-34 0 -65 9t-54.5 27t-37.5 44.5t-14 60.5q0 42 17 74.5t47 55.5t72 35t92 12q54 0 107 -8t97 -22l6 19q8 30 8 57q0 64 -45.5 97t-123.5 33q-42 0 -77.5 -7.5t-65.5 -18.5l-8 29q32 11 70.5 19t83.5 8
q83 0 136 -35.5t58 -105.5q19 31 44.5 58t56 46t65 30t71.5 11q51 0 87.5 -16.5t60 -43.5t35 -62.5t11.5 -73.5q0 -21 -3.5 -40.5t-8.5 -37.5h-436q-3 -21 -3 -42q0 -83 50.5 -132.5t137.5 -49.5q96 0 180 70l20 -23q-45 -38 -95.5 -57.5t-103.5 -19.5q-81 0 -134.5 36
t-74.5 98z" />
    <glyph glyph-name="ccedilla" unicode="&#xe7;" horiz-adv-x="556" 
d="M234 -9q-36 6 -69.5 22.5t-59 44t-41 64.5t-15.5 84q0 62 24 118t65 99t94.5 68t113.5 25q39 0 70 -10t56 -27t42.5 -38.5t29.5 -44.5l-27 -15q-11 20 -27 39t-37 33.5t-48 23.5t-61 9q-52 0 -99.5 -22.5t-83.5 -61t-57 -89t-21 -106.5q0 -45 16 -80.5t42.5 -59.5
t60 -36.5t69.5 -12.5q54 0 96.5 21.5t77.5 53.5l22 -20q-38 -36 -87 -60.5t-110 -24.5h-9l-105 -132l-30 17z" />
    <glyph glyph-name="egrave" unicode="&#xe8;" horiz-adv-x="585" 
d="M297 703l40 20l59 -128h-22zM497 271q2 11 3.5 23t1.5 26q0 32 -9 62t-28.5 53t-50.5 37t-74 14q-45 0 -85.5 -17t-73 -46.5t-55.5 -68.5t-34 -83h405zM87 242q-3 -21 -3 -42q0 -83 50.5 -132.5t137.5 -49.5q96 0 181 70l19 -23q-45 -38 -95 -57.5t-105 -19.5
q-50 0 -91.5 15t-70.5 42.5t-45 66.5t-16 86q0 61 23 118t62.5 101.5t93 71.5t113.5 27q51 0 87.5 -16.5t60.5 -43.5t35 -62.5t11 -73.5q-1 -21 -3.5 -40.5t-8.5 -37.5h-436z" />
    <glyph glyph-name="eacute" unicode="&#xe9;" horiz-adv-x="585" 
d="M446 723l39 -20l-136 -108h-30zM497 271q2 11 3.5 23t1.5 26q0 32 -9 62t-28.5 53t-50.5 37t-74 14q-45 0 -85.5 -17t-73 -46.5t-55.5 -68.5t-34 -83h405zM87 242q-3 -21 -3 -42q0 -83 50.5 -132.5t137.5 -49.5q96 0 181 70l19 -23q-45 -38 -95 -57.5t-105 -19.5
q-50 0 -91.5 15t-70.5 42.5t-45 66.5t-16 86q0 61 23 118t62.5 101.5t93 71.5t113.5 27q51 0 87.5 -16.5t60.5 -43.5t35 -62.5t11 -73.5q-1 -21 -3.5 -40.5t-8.5 -37.5h-436z" />
    <glyph glyph-name="ecircumflex" unicode="&#xea;" horiz-adv-x="585" 
d="M384 717h24l70 -122h-26l-63 85l-110 -85h-31zM497 271q2 11 3.5 23t1.5 26q0 32 -9 62t-28.5 53t-50.5 37t-74 14q-45 0 -85.5 -17t-73 -46.5t-55.5 -68.5t-34 -83h405zM87 242q-3 -21 -3 -42q0 -83 50.5 -132.5t137.5 -49.5q96 0 181 70l19 -23q-45 -38 -95 -57.5
t-105 -19.5q-50 0 -91.5 15t-70.5 42.5t-45 66.5t-16 86q0 61 23 118t62.5 101.5t93 71.5t113.5 27q51 0 87.5 -16.5t60.5 -43.5t35 -62.5t11 -73.5q-1 -21 -3.5 -40.5t-8.5 -37.5h-436z" />
    <glyph glyph-name="edieresis" unicode="&#xeb;" horiz-adv-x="585" 
d="M289 670h49l-17 -64h-49zM437 670h49l-17 -64h-49zM497 271q2 11 3.5 23t1.5 26q0 32 -9 62t-28.5 53t-50.5 37t-74 14q-45 0 -85.5 -17t-73 -46.5t-55.5 -68.5t-34 -83h405zM87 242q-3 -21 -3 -42q0 -83 50.5 -132.5t137.5 -49.5q96 0 181 70l19 -23q-45 -38 -95 -57.5
t-105 -19.5q-50 0 -91.5 15t-70.5 42.5t-45 66.5t-16 86q0 61 23 118t62.5 101.5t93 71.5t113.5 27q51 0 87.5 -16.5t60.5 -43.5t35 -62.5t11 -73.5q-1 -21 -3.5 -40.5t-8.5 -37.5h-436z" />
    <glyph glyph-name="igrave" unicode="&#xec;" horiz-adv-x="232" 
d="M103 703l40 20l59 -128h-22zM167 504h32l-135 -504h-33z" />
    <glyph glyph-name="iacute" unicode="&#xed;" horiz-adv-x="232" 
d="M308 723l39 -20l-136 -108h-30zM167 504h32l-135 -504h-33z" />
    <glyph glyph-name="icircumflex" unicode="&#xee;" horiz-adv-x="232" 
d="M220 717h24l70 -122h-26l-63 85l-110 -85h-31zM167 504h32l-135 -504h-33z" />
    <glyph glyph-name="idieresis" unicode="&#xef;" horiz-adv-x="232" 
d="M125 670h49l-17 -64h-49zM273 670h49l-17 -64h-49zM167 504h32l-135 -504h-33z" />
    <glyph glyph-name="eth" unicode="&#xf0;" horiz-adv-x="610" 
d="M274 19q53 0 99 21t79.5 56t53 80.5t19.5 93.5q0 38 -14 71t-39.5 58t-62.5 39t-82 14q-51 0 -95.5 -21t-77 -56t-51.5 -80t-19 -93q0 -40 14 -73.5t39.5 -58t60 -38t76.5 -13.5zM272 -12q-48 0 -88.5 16t-70.5 44.5t-47 67t-17 83.5q0 55 22 106t60 90t88.5 62.5
t108.5 23.5q62 0 104.5 -22t68.5 -53l-97 234l-161 -74l-14 26l163 75l-26 63h40l19 -48l118 54l13 -26l-120 -55l87 -215q19 -46 28 -85.5t9 -82.5q0 -53 -21.5 -103.5t-59.5 -91t-91 -65t-116 -24.5z" />
    <glyph glyph-name="ntilde" unicode="&#xf1;" horiz-adv-x="607" 
d="M246 607q20 46 42 67.5t50 21.5q19 0 34.5 -11t30.5 -26q14 -14 26 -22.5t25 -8.5q17 0 32.5 15t33.5 50l22 -9q-20 -47 -42 -68t-50 -21q-19 0 -34.5 11t-30.5 25q-14 15 -26 23.5t-25 8.5q-17 0 -32.5 -15t-33.5 -50zM160 504h32l-31 -115q16 25 36.5 48t46.5 40.5
t57.5 28t69.5 10.5q82 0 125.5 -45t43.5 -118q0 -19 -3.5 -39.5t-9.5 -41.5l-72 -272h-32l73 273q5 20 7.5 39.5t2.5 37.5q0 61 -35 98.5t-107 37.5q-36 0 -72 -14.5t-67.5 -41t-55.5 -64.5t-37 -85l-75 -281h-32z" />
    <glyph glyph-name="ograve" unicode="&#xf2;" horiz-adv-x="626" 
d="M307 703l40 20l59 -128h-22zM281 18q54 0 101.5 23t83 61t55.5 86.5t20 100.5q0 43 -14 79.5t-40 62.5t-62 40.5t-80 14.5q-55 0 -102.5 -23t-83 -61.5t-55.5 -87t-20 -99.5q0 -44 14 -80t40 -62t62.5 -40.5t80.5 -14.5zM278 -12q-50 0 -92 17t-72 47t-47 71t-17 89
q0 57 22.5 111.5t62 97.5t94 69t118.5 26q50 0 92 -17t72.5 -47t47.5 -71t17 -89q0 -58 -23 -112.5t-63 -97t-94.5 -68.5t-117.5 -26z" />
    <glyph glyph-name="oacute" unicode="&#xf3;" horiz-adv-x="626" 
d="M457 723l39 -20l-136 -108h-30zM281 18q54 0 101.5 23t83 61t55.5 86.5t20 100.5q0 43 -14 79.5t-40 62.5t-62 40.5t-80 14.5q-55 0 -102.5 -23t-83 -61.5t-55.5 -87t-20 -99.5q0 -44 14 -80t40 -62t62.5 -40.5t80.5 -14.5zM278 -12q-50 0 -92 17t-72 47t-47 71t-17 89
q0 57 22.5 111.5t62 97.5t94 69t118.5 26q50 0 92 -17t72.5 -47t47.5 -71t17 -89q0 -58 -23 -112.5t-63 -97t-94.5 -68.5t-117.5 -26z" />
    <glyph glyph-name="ocircumflex" unicode="&#xf4;" horiz-adv-x="626" 
d="M417 717h24l70 -122h-26l-63 85l-110 -85h-31zM281 18q54 0 101.5 23t83 61t55.5 86.5t20 100.5q0 43 -14 79.5t-40 62.5t-62 40.5t-80 14.5q-55 0 -102.5 -23t-83 -61.5t-55.5 -87t-20 -99.5q0 -44 14 -80t40 -62t62.5 -40.5t80.5 -14.5zM278 -12q-50 0 -92 17t-72 47
t-47 71t-17 89q0 57 22.5 111.5t62 97.5t94 69t118.5 26q50 0 92 -17t72.5 -47t47.5 -71t17 -89q0 -58 -23 -112.5t-63 -97t-94.5 -68.5t-117.5 -26z" />
    <glyph glyph-name="otilde" unicode="&#xf5;" horiz-adv-x="626" 
d="M257 607q20 46 42 67.5t50 21.5q19 0 34.5 -11t30.5 -26q14 -14 26 -22.5t25 -8.5q17 0 32.5 15t33.5 50l22 -9q-20 -47 -42 -68t-50 -21q-19 0 -34.5 11t-30.5 25q-14 15 -26 23.5t-25 8.5q-17 0 -32.5 -15t-33.5 -50zM281 18q54 0 101.5 23t83 61t55.5 86.5t20 100.5
q0 43 -14 79.5t-40 62.5t-62 40.5t-80 14.5q-55 0 -102.5 -23t-83 -61.5t-55.5 -87t-20 -99.5q0 -44 14 -80t40 -62t62.5 -40.5t80.5 -14.5zM278 -12q-50 0 -92 17t-72 47t-47 71t-17 89q0 57 22.5 111.5t62 97.5t94 69t118.5 26q50 0 92 -17t72.5 -47t47.5 -71t17 -89
q0 -58 -23 -112.5t-63 -97t-94.5 -68.5t-117.5 -26z" />
    <glyph glyph-name="odieresis" unicode="&#xf6;" horiz-adv-x="626" 
d="M304 670h49l-17 -64h-49zM452 670h49l-17 -64h-49zM281 18q54 0 101.5 23t83 61t55.5 86.5t20 100.5q0 43 -14 79.5t-40 62.5t-62 40.5t-80 14.5q-55 0 -102.5 -23t-83 -61.5t-55.5 -87t-20 -99.5q0 -44 14 -80t40 -62t62.5 -40.5t80.5 -14.5zM278 -12q-50 0 -92 17
t-72 47t-47 71t-17 89q0 57 22.5 111.5t62 97.5t94 69t118.5 26q50 0 92 -17t72.5 -47t47.5 -71t17 -89q0 -58 -23 -112.5t-63 -97t-94.5 -68.5t-117.5 -26z" />
    <glyph glyph-name="oslash" unicode="&#xf8;" horiz-adv-x="626" 
d="M281 18q54 0 101.5 23t83 61t55.5 86.5t20 100.5q0 64 -28 110l-384 -316q26 -31 64.5 -48t87.5 -17zM498 421q-26 31 -65 48t-88 17q-55 0 -102.5 -23t-83 -61.5t-55.5 -87t-20 -99.5q0 -63 29 -110zM278 -12q-55 0 -99 19.5t-75 54.5l-82 -67h-43l108 89
q-37 54 -37 128q0 57 22.5 111.5t62 97.5t94 69t118.5 26q56 0 100.5 -20t74.5 -55l93 76h43l-119 -97q37 -56 37 -128q0 -58 -23 -112.5t-63 -97t-94.5 -68.5t-117.5 -26z" />
    <glyph glyph-name="ugrave" unicode="&#xf9;" horiz-adv-x="607" 
d="M299 703l40 20l59 -128h-22zM236 -12q-82 0 -125.5 45t-43.5 118q0 19 3.5 39.5t8.5 41.5l73 272h32l-73 -273q-11 -41 -11 -77q0 -61 35.5 -98.5t107.5 -37.5q36 0 72 14.5t67 41t55.5 64.5t36.5 85l75 281h33l-135 -504h-32l31 115q-16 -25 -37 -48t-47 -40.5
t-57.5 -28t-68.5 -10.5z" />
    <glyph glyph-name="uacute" unicode="&#xfa;" horiz-adv-x="607" 
d="M469 723l39 -20l-136 -108h-30zM236 -12q-82 0 -125.5 45t-43.5 118q0 19 3.5 39.5t8.5 41.5l73 272h32l-73 -273q-11 -41 -11 -77q0 -61 35.5 -98.5t107.5 -37.5q36 0 72 14.5t67 41t55.5 64.5t36.5 85l75 281h33l-135 -504h-32l31 115q-16 -25 -37 -48t-47 -40.5
t-57.5 -28t-68.5 -10.5z" />
    <glyph glyph-name="ucircumflex" unicode="&#xfb;" horiz-adv-x="607" 
d="M406 717h24l70 -122h-26l-63 85l-110 -85h-31zM236 -12q-82 0 -125.5 45t-43.5 118q0 19 3.5 39.5t8.5 41.5l73 272h32l-73 -273q-11 -41 -11 -77q0 -61 35.5 -98.5t107.5 -37.5q36 0 72 14.5t67 41t55.5 64.5t36.5 85l75 281h33l-135 -504h-32l31 115q-16 -25 -37 -48
t-47 -40.5t-57.5 -28t-68.5 -10.5z" />
    <glyph glyph-name="udieresis" unicode="&#xfc;" horiz-adv-x="607" 
d="M306 667h49l-17 -64h-49zM454 667h49l-17 -64h-49zM236 -12q-82 0 -125.5 45t-43.5 118q0 19 3.5 39.5t8.5 41.5l73 272h32l-73 -273q-11 -41 -11 -77q0 -61 35.5 -98.5t107.5 -37.5q36 0 72 14.5t67 41t55.5 64.5t36.5 85l75 281h33l-135 -504h-32l31 115
q-16 -25 -37 -48t-47 -40.5t-57.5 -28t-68.5 -10.5z" />
    <glyph glyph-name="yacute" unicode="&#xfd;" horiz-adv-x="571" 
d="M437 723l39 -20l-136 -108h-30zM26 -163q-32 0 -57 8.5t-44 21.5l18 26q17 -12 39 -19.5t46 -7.5q19 0 38 5.5t40 20.5t44.5 40.5t52.5 66.5l-108 505h34l98 -473l326 473h38l-358 -514q-33 -48 -61 -77.5t-52.5 -46.5t-47 -23t-46.5 -6z" />
    <glyph glyph-name="thorn" unicode="&#xfe;" horiz-adv-x="652" 
d="M311 18q56 0 102.5 24.5t79.5 64t51 90t18 101.5q0 41 -13 75.5t-36 59.5t-55 39t-71 14q-56 0 -105 -25.5t-85.5 -65t-57.5 -87.5t-21 -94q0 -42 13.5 -77.5t39 -62t61 -41.5t79.5 -15zM221 730h32l-92 -342q13 21 36 44t52.5 41.5t65 30.5t75.5 12q45 0 83 -16.5
t65.5 -45t42.5 -67.5t15 -85q0 -61 -21.5 -117.5t-59.5 -100t-90 -70t-113 -26.5q-48 0 -85 14.5t-63 38t-42.5 53.5t-22.5 60l-85 -314h-32z" />
    <glyph glyph-name="ydieresis" unicode="&#xff;" horiz-adv-x="571" 
d="M283 667h49l-17 -64h-49zM431 667h49l-17 -64h-49zM26 -163q-32 0 -57 8.5t-44 21.5l18 26q17 -12 39 -19.5t46 -7.5q19 0 38 5.5t40 20.5t44.5 40.5t52.5 66.5l-108 505h34l98 -473l326 473h38l-358 -514q-33 -48 -61 -77.5t-52.5 -46.5t-47 -23t-46.5 -6z" />
    <glyph glyph-name="dotlessi" unicode="&#x131;" horiz-adv-x="232" 
d="M167 504h32l-135 -504h-33z" />
    <glyph glyph-name="Lslash" unicode="&#x141;" horiz-adv-x="625" 
d="M158 326l-94 -28l8 32l95 28l92 342h34l-89 -331l255 76l-8 -32l-256 -76l-82 -306h423l-9 -31h-456z" />
    <glyph glyph-name="lslash" unicode="&#x142;" horiz-adv-x="279" 
d="M148 347l-84 -25l8 32l85 25l94 351h33l-92 -341l85 26l-8 -32l-86 -26l-95 -357h-33z" />
    <glyph glyph-name="OE" unicode="&#x152;" horiz-adv-x="1161" 
d="M557 31l171 638h-174q-101 0 -184 -31.5t-143 -91.5q-48 -48 -74 -112t-26 -138q0 -58 18.5 -102.5t50.5 -76.5q42 -43 106.5 -64.5t142.5 -21.5h112zM447 0q-85 0 -157.5 23.5t-120.5 71.5q-36 37 -56 86t-20 113q0 81 28 150.5t81 122.5q63 63 155 98t202 35h654
l-9 -31h-442l-81 -301h399l-8 -31h-400l-82 -306h448l-8 -31h-583z" />
    <glyph glyph-name="oe" unicode="&#x153;" horiz-adv-x="1065" 
d="M278 18q54 0 102 23t84 60.5t56.5 86t20.5 99.5q0 44 -14 80.5t-40 63t-62 41t-80 14.5q-55 0 -102.5 -23t-83 -61.5t-55.5 -87t-20 -99.5q0 -44 13.5 -80t39 -62t61.5 -40.5t80 -14.5zM977 271q5 23 5 49q0 32 -9 62t-28.5 53t-50 37t-73.5 14q-45 0 -85.5 -17
t-73 -46.5t-56 -68.5t-33.5 -83h404zM568 242q-4 -19 -4 -42q0 -83 51 -132.5t138 -49.5q96 0 180 70l20 -23q-45 -38 -95.5 -57.5t-103.5 -19.5q-45 0 -82.5 12t-65 34.5t-45 54.5t-23.5 71q-17 -35 -43 -66.5t-60 -55t-74.5 -37t-86.5 -13.5q-50 0 -91 17t-70.5 47t-46 71
t-16.5 89q0 57 22.5 111.5t62 97.5t94 69t118.5 26q45 0 82.5 -13.5t66 -37.5t46.5 -57t24 -72q17 37 42.5 70t58 57.5t71.5 38.5t83 14q51 0 88 -16.5t60.5 -43.5t35 -62.5t11.5 -73.5q-2 -44 -13 -78h-435z" />
    <glyph glyph-name="Scaron" unicode="&#x160;" horiz-adv-x="639" 
d="M355 887h26l62 -85l111 85h31l-137 -122h-23zM300 -10q-89 0 -161.5 35.5t-117.5 96.5l26 19q45 -58 110 -89t147 -31q50 0 90 14t67.5 36.5t42 52t14.5 61.5q0 31 -12.5 54t-35.5 41t-55 33t-70 30q-43 16 -78 33t-60.5 37t-39.5 46t-14 61q0 37 16.5 71.5t48 60.5
t77.5 42t104 16q76 0 137 -28t103 -75l-26 -22q-39 45 -94 69.5t-123 24.5q-50 0 -88.5 -13.5t-65.5 -35t-41 -49.5t-14 -58q0 -29 13 -50.5t36.5 -39t55 -32t69.5 -28.5q41 -16 76 -33t60.5 -38.5t40 -49t14.5 -64.5q0 -38 -16.5 -73.5t-49 -63.5t-79.5 -44.5t-107 -16.5z
" />
    <glyph glyph-name="scaron" unicode="&#x161;" horiz-adv-x="492" 
d="M243 717h26l62 -85l111 85h31l-137 -122h-23zM212 -10q-57 0 -112.5 21t-97.5 62l23 23q41 -38 88.5 -57t101.5 -19q34 0 61.5 9t47.5 24.5t31 35t11 40.5t-7.5 36.5t-22.5 28.5t-38.5 24.5t-55.5 23.5q-64 24 -103 53t-39 79q0 27 12.5 52.5t36 45t57.5 31t77 11.5
q45 0 94 -17t86 -49l-21 -24q-35 29 -77.5 44.5t-83.5 15.5q-36 0 -63.5 -9t-46 -24t-28 -34t-9.5 -38q0 -40 31.5 -62.5t93.5 -46.5q33 -13 59.5 -26.5t44.5 -29.5t27.5 -35.5t9.5 -45.5q0 -28 -13.5 -53.5t-38 -45.5t-59.5 -32t-77 -12z" />
    <glyph glyph-name="Ydieresis" unicode="&#x178;" horiz-adv-x="666" 
d="M377 834h49l-17 -64h-49zM525 834h49l-17 -64h-49zM320 290l-183 410h36l170 -384l377 384h45l-413 -418l-76 -282h-34z" />
    <glyph glyph-name="Zcaron" unicode="&#x17d;" horiz-adv-x="666" 
d="M368 887h26l62 -85l111 85h31l-137 -122h-23zM-7 19l664 650h-473l9 31h526l-6 -19l-664 -650h489l-8 -31h-542z" />
    <glyph glyph-name="zcaron" unicode="&#x17e;" horiz-adv-x="511" 
d="M253 717h26l62 -85l111 85h31l-137 -122h-23zM-21 18l494 458h-359l8 28h410l-5 -18l-494 -458h374l-8 -28h-425z" />
    <glyph glyph-name="florin" unicode="&#x192;" horiz-adv-x="480" 
d="M13 -6q-17 0 -26.5 1.5t-20.5 3.5l8 29q8 -2 17 -3.5t24 -1.5q36 0 65.5 24.5t57.5 88.5l113 258h-109l7 30h115l61 140q36 81 78.5 111.5t93.5 30.5q19 0 34.5 -3t32.5 -8l-10 -29q-27 10 -59 10q-20 0 -38.5 -5.5t-36.5 -19.5t-34.5 -38t-32.5 -60l-56 -129h159l-8 -30
h-164l-117 -266q-17 -39 -35 -65t-36.5 -41.5t-39 -21.5t-43.5 -6z" />
    <glyph glyph-name="circumflex" unicode="&#x2c6;" 
d="M363 717h24l70 -122h-26l-63 85l-110 -85h-31z" />
    <glyph glyph-name="caron" unicode="&#x2c7;" 
d="M258 717h26l62 -85l111 85h31l-137 -122h-23z" />
    <glyph glyph-name="breve" unicode="&#x2d8;" 
d="M343 594q-47 0 -74.5 25.5t-27.5 68.5q0 12 3 29h26q-5 -39 14 -65.5t64 -26.5q48 0 78 27.5t47 64.5h28q-20 -55 -60.5 -89t-97.5 -34z" />
    <glyph glyph-name="dotaccent" unicode="&#x2d9;" 
d="M340 673h45l-19 -68h-45z" />
    <glyph glyph-name="ring" unicode="&#x2da;" 
d="M358 617q32 0 56 22.5t24 56.5q0 27 -17.5 44t-49.5 17t-56 -22.5t-24 -56.5q0 -27 17.5 -44t49.5 -17zM358 595q-42 0 -67 23t-25 60q0 21 9 39.5t23.5 32t33.5 21.5t39 8q42 0 67 -23t25 -60q0 -21 -9 -39.5t-23.5 -32t-33.5 -21.5t-39 -8z" />
    <glyph glyph-name="ogonek" unicode="&#x2db;" 
d="M225 -161q-73 -2 -104.5 20.5t-31.5 60.5q0 21 10 45.5t24 44.5h27q-11 -20 -19.5 -44.5t-8.5 -40.5q0 -32 25.5 -47t82.5 -17z" />
    <glyph glyph-name="tilde" unicode="&#x2dc;" 
d="M205 607q20 46 42 67.5t50 21.5q19 0 34.5 -11t30.5 -26q14 -14 26 -22.5t25 -8.5q17 0 32.5 15t33.5 50l22 -9q-20 -47 -42 -68t-50 -21q-19 0 -34.5 11t-30.5 25q-14 15 -26 23.5t-25 8.5q-17 0 -32.5 -15t-33.5 -50z" />
    <glyph glyph-name="hungarumlaut" unicode="&#x2dd;" 
d="M335 723l33 -19l-134 -109h-26zM469 723l33 -19l-134 -109h-26z" />
    <glyph glyph-name="Omega" unicode="&#x3a9;" horiz-adv-x="680" 
d="M177 475h-77l8 29h77l22 82q11 41 27.5 68.5t37 44.5t44 24t49.5 7q53 0 93 -23l-9 -29q-41 22 -85 22q-40 0 -74 -25.5t-52 -94.5l-21 -76h183l-7 -29h-184l-127 -475h-32zM517 475h-77l8 29h77l22 82q22 81 64.5 112.5t93.5 31.5q53 0 93 -23l-9 -29q-42 22 -85 22
q-40 0 -74 -25.5t-53 -94.5l-20 -76h183l-8 -29h-183l-127 -475h-33z" />
    <glyph glyph-name="Omega" unicode="&#x2126;" horiz-adv-x="680" 
d="M177 475h-77l8 29h77l22 82q11 41 27.5 68.5t37 44.5t44 24t49.5 7q53 0 93 -23l-9 -29q-41 22 -85 22q-40 0 -74 -25.5t-52 -94.5l-21 -76h183l-7 -29h-184l-127 -475h-32zM517 475h-77l8 29h77l22 82q22 81 64.5 112.5t93.5 31.5q53 0 93 -23l-9 -29q-42 22 -85 22
q-40 0 -74 -25.5t-53 -94.5l-20 -76h183l-8 -29h-183l-127 -475h-33z" />
    <glyph glyph-name="pi" unicode="&#x3c0;" horiz-adv-x="829" 
d="M460 331q53 0 84.5 23.5t31.5 65.5q0 44 -31 66t-82 22h-105v-177h102zM329 535h135q65 0 103 -29.5t38 -83.5q0 -29 -11.5 -51t-31 -37t-46.5 -22.5t-57 -7.5h-101v-135h-29v366zM440 9q71 0 133 27t108 73.5t72.5 108.5t26.5 132t-26.5 132.5t-72 108.5t-107.5 73
t-133 27t-133 -27t-108 -73.5t-72.5 -108.5t-26.5 -132q0 -71 26.5 -133t72 -108t107.5 -73t133 -27zM440 -12q-75 0 -141 28.5t-115 77.5t-77 115t-28 141t28.5 140.5t77.5 115t115 78t141 28.5t141 -28.5t115 -77.5t77.5 -115t28.5 -141t-28.5 -140.5t-77.5 -115
t-115.5 -78t-141.5 -28.5z" />
    <glyph glyph-name="endash" unicode="&#x2013;" horiz-adv-x="534" 
d="M85 313h394l-9 -32h-394z" />
    <glyph glyph-name="emdash" unicode="&#x2014;" horiz-adv-x="896" 
d="M85 313h756l-9 -32h-756z" />
    <glyph glyph-name="quoteleft" unicode="&#x2018;" horiz-adv-x="191" 
d="M162 604q13 47 31.5 68t50.5 30l5 -17q-26 -8 -39 -26.5t-19 -46.5h22l-18 -65h-48z" />
    <glyph glyph-name="quoteright" unicode="&#x2019;" horiz-adv-x="191" 
d="M139 562q26 8 39 26.5t19 46.5h-21l17 65h48l-15 -57q-13 -47 -31.5 -68t-50.5 -30z" />
    <glyph glyph-name="quotesinglbase" unicode="&#x201a;" horiz-adv-x="191" 
d="M-33 -73q26 8 39 26.5t19 46.5h-21l17 65h48l-15 -57q-13 -47 -31.5 -68t-50.5 -30z" />
    <glyph glyph-name="quotedblleft" unicode="&#x201c;" horiz-adv-x="317" 
d="M162 604q12 47 31 68t51 30l5 -17q-26 -8 -39 -26.5t-19 -46.5h21l-17 -65h-48zM288 604q12 47 31 68t51 30l5 -17q-26 -8 -39 -26.5t-19 -46.5h21l-17 -65h-48z" />
    <glyph glyph-name="quotedblright" unicode="&#x201d;" horiz-adv-x="317" 
d="M134 562q26 8 39.5 26.5t19.5 46.5h-22l18 65h48l-15 -57q-13 -47 -31.5 -68t-50.5 -30zM260 562q26 8 39.5 26.5t19.5 46.5h-22l18 65h48l-15 -57q-13 -47 -31.5 -68t-50.5 -30z" />
    <glyph glyph-name="quotedblbase" unicode="&#x201e;" horiz-adv-x="317" 
d="M-33 -73q26 8 39 26.5t19 46.5h-21l17 65h48l-15 -57q-13 -47 -31.5 -68t-50.5 -30zM93 -73q26 8 39.5 26.5t19.5 46.5h-22l18 65h48l-15 -57q-13 -47 -31.5 -68t-50.5 -30z" />
    <glyph glyph-name="dagger" unicode="&#x2020;" horiz-adv-x="397" 
d="M254 531l-126 -7l8 31l123 -6l35 151h33l-47 -151l127 6l-9 -31l-124 7l-72 -293h-32z" />
    <glyph glyph-name="daggerdbl" unicode="&#x2021;" horiz-adv-x="405" 
d="M156 151l-126 -6l8 31l123 -7l44 181l53 181l-126 -7l8 31l123 -6l35 151h33l-47 -151l127 6l-9 -31l-124 7l-42 -181l-54 -181l127 7l-9 -31l-122 6l-35 -151h-33z" />
    <glyph glyph-name="bullet" unicode="&#x2022;" horiz-adv-x="447" 
d="M228 235q-42 0 -68.5 26t-26.5 72q0 27 10.5 52t28 43.5t41 29.5t49.5 11q42 0 68.5 -26t26.5 -72q0 -27 -10.5 -52t-28 -43.5t-41 -29.5t-49.5 -11z" />
    <glyph glyph-name="ellipsis" unicode="&#x2026;" horiz-adv-x="564" 
d="M21 65h48l-17 -65h-48zM208 65h48l-18 -65h-48zM394 65h48l-17 -65h-48z" />
    <glyph glyph-name="perthousand" unicode="&#x2030;" horiz-adv-x="1205" 
d="M588 22q32 0 60 16t48.5 42t32.5 59t12 67q0 52 -28 85.5t-77 33.5q-32 0 -60 -16t-48.5 -42t-32.5 -59t-12 -67q0 -52 28 -85.5t77 -33.5zM971 22q32 0 60 16t48.5 42t32.5 59t12 67q0 52 -28 85.5t-77 33.5q-32 0 -60 -16t-48.5 -42t-32.5 -59t-12 -67
q0 -52 28.5 -85.5t76.5 -33.5zM237 375q32 0 60 16t48.5 42t32.5 59t12 67q0 52 -28 86t-77 34q-32 0 -60 -16t-48.5 -42t-32.5 -59t-12 -67q0 -52 28.5 -86t76.5 -34zM586 -8q-30 0 -55 11.5t-43 31t-28 46t-10 57.5q0 41 14.5 80t40 69t60 48.5t73.5 18.5q30 0 55 -11
t43 -30.5t28 -46.5t10 -58q0 -41 -15 -80t-40.5 -69t-59.5 -48.5t-73 -18.5zM969 -8q-30 0 -55 11.5t-43 31t-27.5 46t-9.5 57.5q0 41 14.5 80t40 69t60 48.5t73.5 18.5q30 0 55 -11t42.5 -30.5t27.5 -46.5t10 -58q0 -41 -15 -80t-40.5 -69t-59.5 -48.5t-73 -18.5zM763 700
h39l-691 -700h-40zM235 346q-30 0 -55 11t-43 30.5t-27.5 46.5t-9.5 58q0 41 14.5 80t40 69t60 48.5t73.5 18.5q30 0 55 -11t42.5 -30.5t27.5 -46.5t10 -58q0 -41 -15 -80t-40.5 -69t-59.5 -48.5t-73 -18.5z" />
    <glyph glyph-name="guilsinglleft" unicode="&#x2039;" horiz-adv-x="300" 
d="M43 252l2 6l223 206l22 -17l-208 -197l100 -191l-25 -14z" />
    <glyph glyph-name="guilsinglright" unicode="&#x203a;" horiz-adv-x="300" 
d="M9 62l207 196l-99 192l25 13l113 -206l-1 -7l-224 -205z" />
    <glyph glyph-name="fraction" unicode="&#x2044;" horiz-adv-x="474" 
d="M588 759h37l-699 -857h-37z" />
    <glyph glyph-name="fraction" unicode="&#x2215;" horiz-adv-x="474" 
d="M588 759h37l-699 -857h-37z" />
    <glyph glyph-name="trademark" unicode="&#x2122;" horiz-adv-x="670" 
d="M232 677h-106l6 23h236l-7 -23h-106l-82 -285h-23zM437 700h20l74 -185l177 185h26l-88 -308h-23l76 266l-176 -181h-2l-73 181l-76 -266h-23z" />
    <glyph glyph-name="radical" unicode="&#x221a;" horiz-adv-x="911" 
d="M177 475h-77l8 29h77l22 82q11 41 27.5 68.5t37 44.5t44 24t49.5 7q53 0 93 -23l-9 -29q-41 22 -85 22q-40 0 -74 -25.5t-52 -94.5l-21 -76h183l-7 -29h-184l-127 -475h-32zM517 475h-77l8 29h77l22 82q22 81 64.5 112.5t93.5 31.5q53 0 93 -23l-9 -29q-42 22 -85 22
q-40 0 -74 -25.5t-53 -94.5l-20 -76h183l-8 -29h-183l-127 -475h-33zM907 730h32l-196 -730h-32z" />
    <glyph glyph-name="approxequal" unicode="&#x2248;" horiz-adv-x="912" 
d="M846 504h32l-135 -504h-32zM177 475h-77l8 29h77l22 82q11 41 27.5 68.5t37 44.5t44 24t49.5 7q53 0 93 -23l-9 -29q-41 22 -85 22q-40 0 -74 -25.5t-52 -94.5l-21 -76h183l-7 -29h-184l-127 -475h-32zM517 475h-77l8 29h77l22 82q22 81 64.5 112.5t93.5 31.5
q53 0 93 -23l-9 -29q-42 22 -85 22q-40 0 -74 -25.5t-53 -94.5l-20 -76h183l-8 -29h-183l-127 -475h-33zM895 704h43l-17 -61h-43z" />
    <glyph glyph-name="NUL" horiz-adv-x="0" 
 />
    <glyph glyph-name="apple" horiz-adv-x="967" 
d="M417 64q0 -7 -2.5 -12t-9.5 -5q-6 0 -9 5t-3 12q0 16 12 16t12 -16zM352 64h-3q-8 0 -8 8q0 6 7 6q4 0 4 -4v-10zM553 79q4 0 0 -9q-5 9 0 9zM393 182q0 -7 -4 -7h-5q-11 0 -18.5 10t-7.5 22q0 17 14 17h6q3 -1 3.5 -1.5t2.5 -5.5zM716 187q0 -13 -11 -13q-9 0 -17 11.5
t-8 26.5q0 14 11 14q9 0 17 -11.5t8 -27.5zM275 200q-8 0 -11.5 5t-3.5 10q0 9 8 9t9 -5l3 -19h-5zM381 384q-13 0 -13 11t13 11h11v-22h-11zM684 535q0 -13 -11 -13q-9 0 -17 11.5t-8 26.5q0 14 11 14q9 0 17 -11.5t8 -27.5zM272 553q-3 -4 -7 -4t-4 2q0 3 4 3q5 0 7 -1z
M566 553q-3 -4 -7 -4t-4 2q0 3 4 3q5 0 7 -1zM171 548q-8 0 -11.5 5t-3.5 10q0 9 8 9t9 -5l3 -19h-5zM441 -88q0 13 -11 13t-11 -12q0 -13 11 -13t11 12zM800 -88q0 13 -11 13t-11 -12q0 -13 11 -13t11 12zM559 -80l-5 -12h10zM394 -83q0 8 -11 7v-13q11 0 11 6zM525 -82
q0 8 -11 6v-12q11 -1 11 6zM606 -83q0 8 -11 7v-13q11 0 11 6zM309 48q-2 0 -3 1q-3 1 -3 5v20q0 2 3 4q1 1 3 1v2h-18v-2q1 0 3 -1q3 -3 3 -4v-9q-2 0 -4 2l-8 8q-3 1 -1 3q1 1 2 1v2h-14v-2q1 0 3 -1t2.5 -1.5t2.5 -1.5l10 -9l-13 -13q-1 -1 -2 -1.5t-2 -1.5q-2 -1 -3 -2
v-2h17v2q-2 0 -3 1t1 4l8 8q2 2 4 2v-9q0 -2 -3 -5q-2 -1 -3 -1v-2h18v2zM364 48q-2 0 -3 1q-2 2 -2 4v20q0 3 2 5q1 1 3 1v2h-18q-13 0 -13 -9q0 -5 9 -9l-7 -10q-2 -2 -3.5 -2.5t-2.5 -1.5l-2 -1v-2h11l7 12q3 4 7 4v-9q0 -2 -1 -2.5t-2 -1.5t-2 -1v-2h17v2zM425 64
q0 8 -5 13t-15 5t-15 -5t-5 -13t5 -13.5t15 -5.5t15 5.5t5 13.5zM480 81h-15v-2q1 0 2 -1t-1 -4l-6 -9l-6 9q-2 2 0 4q1 1 3 1v2h-15v-2q1 0 3 -1t5 -4l8 -12v-8q0 -2 -3 -5q-1 -1 -2 -1v-2h17v2q-2 0 -3 1q-2 2 -2 5v8l8 12q1 2 2.5 2.5t2.5 1.5t2 1v2zM568 81v-2q1 0 2 -1
t0 -4l-9 -19l-5 10l4 8q1 2 2 2.5t2 1.5l2 2v2h-26l1 -2q1 0 2 -1l2 -2l3 -3l3 -5l-7 -13l-8 18q-2 3 0 5q1 1 2 1v2h-13v-2q1 0 2 -1q3 -3 4 -5l13 -27h1q1 -1 1 0l8 16l9 -16h1l12 27q1 2 2.5 3t2.5 2t2 1v2h-15zM633 48q-2 -1 -3 0q-2 0 -2 5v21q0 3 2 5h3v2h-29l-2 -10
l2 -1q0 2 2 4q2 4 7 4h4q4 0 4 -3v-10h-4q-3 0 -5 2q-1 1 -1 3h-2v-13h2q0 1 1 3q3 3 5 3h4v-11q0 -3 -4 -3h-4q-4 0 -8 4q-2 2 -2 5l-2 -1l2 -11h30v2zM694 48q-2 0 -3 1q-3 1 -3 4v20q0 2 3 4q1 1 3 2v2h-10l-24 -26v18q0 3 3 5q1 1 3 1v2h-15v-2q1 0 3 -1q3 -3 3 -5v-28
h3l25 28v-20q0 -1 -3 -4q-1 -1 -2 -1v-2h14v2zM827 133h-685v-6h685v6zM306 174q-2 0 -4 1t-3.5 2t-2.5 5l-7 35q-1 5 3 7q2 1 4 1l-1 3h-27q-20 0 -20 -15q0 -6 5.5 -10t13.5 -5l-9 -16q-2 -4 -4.5 -5t-4.5 -2q-3 -1 -5 -1l1 -3h19l12 23q1 3 5 3l3 -15q1 -5 -3 -7
q-2 -1 -4 -1l1 -3h29zM413 175q-2 -1 -4 0q-5 2 -6 9l-8 31q-3 9 8 10l-1 3h-30q-9 0 -17 -5.5t-8 -16.5q0 -16 11 -25.5t24 -9.5h32zM522 174q-1 0 -3 1q-5 2 -6 9l-7 32q-1 6 3 8q2 1 5 1l-1 3h-14l-29 -42l-5 30q-1 6 3 8q2 1 4 1l-1 3h-21l1 -3q2 0 4 -1q3 -2 5 -8
l8 -45l3 -1l30 44l6 -30q1 -7 -2 -9q-2 -1 -4 -1l1 -3h21zM620 228h-29l1 -3q2 0 4 -1q5 -2 6 -8l5 -21q2 -10 1 -15t-12 -5q-8 0 -13 6.5t-7 15.5l-4 19q-1 7 3 9q2 1 4 0v3h-24l1 -3q2 0 5 -1q5 -2 6 -8l4 -19q2 -8 8 -17.5t20 -9.5q17 0 19 8t0 16l-5 22q-2 4 -0.5 6
t3.5 3t5 0zM822 174q-2 0 -4 1t-3.5 2t-2.5 5l-7 35q-1 5 3 7q2 1 4 1l-1 3h-45v-10v-7h4q-1 3 1 6q2 7 12 7h4q5 0 6 -6l3 -16h-4q-5 0 -9 4q-2 2 -3 5h-3l5 -23h3q0 2 1 5q2 6 7 6h4l3 -17q1 -5 -3 -7q-2 -1 -4 -1l1 -3h29zM203 217q-3 5 -6.5 9t-11.5 4q-15 0 -14 -23
q-3 10 -8 16.5t-13 6.5q-5 0 -8.5 -3t-3.5 -9l3 -1q0 6 8 6q10 0 15.5 -10.5t8.5 -22.5q2 -7 1 -9.5t-3 -4.5t-4 -1l1 -4h28l-1 4q-2 -1 -4 0q-5 2 -6 9q-5 17 -5 25q0 13 9 13q5 0 7.5 -2.5l4.5 -4.5zM728 192q0 15 -11.5 26.5t-25.5 11.5q-7 0 -15 -5t-8 -17
q0 -16 11.5 -27t25.5 -11q7 0 15 5t8 17zM827 277h-685v-6h685v6zM283 341h-14v65h14v34h-141v-62h41v28h33v-20h-24v-24h24v-21h-33v28h-41v-61h141v33zM458 341h-14v65h14v34h-96q-22 0 -34.5 -11.5t-12.5 -28.5t12.5 -28.5t34.5 -11.5h30v-19h-15v-33h81v33zM648 440h-81
v-34h11l-15 -23l-15 23h10v34h-62v-34h12l37 -46v-19h-14v-33h81v33h-15v20l37 45h14v34zM827 440h-147v-62h36v28h11v-65h-14v-33h81v33h-14v65h11v-28h36v62zM827 481h-685v-6h685v6zM400 521q0 2 -3 5t-10 4q-4 3 -4.5 10.5t-2 16t-6 15t-16.5 6.5q-5 0 -9 -3.5t-4 -6.5
q0 -5 5 -5q4 0 4 6t5 6t6.5 -5t2.5 -12t3.5 -14.5t8.5 -13.5q-11 0 -14.5 -6.5t-8.5 -6.5t-5 4q0 2 1 2.5t1 2.5q0 5 -5 5t-5 -7q0 -5 5 -8.5t10 -3.5q13 0 15 6.5t10 6.5q3 -7 12 -7q4 0 4 3zM202 522q-2 0 -4 1t-3.5 2t-2.5 5l-7 35q-1 5 3 7q2 1 4 1l-1 3h-27
q-20 0 -20 -15q0 -6 5.5 -10t13.5 -5l-9 -16q-2 -4 -4.5 -5t-4.5 -2q-3 -1 -5 -1l1 -3h19l12 23q1 3 5 3l3 -15q1 -5 -3 -7q-2 -1 -4 -1l1 -3h29zM497 522q-2 0 -4 1t-3.5 2t-2.5 5l-7 35q-1 5 3 7q2 1 4 1l-1 3h-45v-10v-7h4q-1 3 1 6q2 7 12 7h4q5 0 6 -6l3 -16h-4
q-5 0 -9 4q-2 2 -3 5h-3l5 -23h3q0 2 1 5q2 6 7 6h4l3 -17q1 -5 -3 -7q-2 -1 -4 -1l1 -3h29zM820 522q-2 0 -4 1t-3.5 2t-2.5 5l-7 35q-1 5 3 7q2 1 4 1l-1 3h-28l1 -3q2 0 4 -1q4 -2 5 -7l3 -15h-24l-3 15q-1 5 3 7q2 1 4 1l-1 3h-29l1 -3q2 0 4 -1q5 -2 6 -7l7 -35
q1 -5 -3 -7q-2 -1 -4 -1l1 -3h29l-1 3q-2 0 -4 1t-3.5 2t-2.5 5l-3 16h24l3 -16q1 -5 -3 -7q-2 -1 -4 -1l1 -3h29zM295 537q0 12 -14 17q5 3 5 9q0 5 -5 10t-16 5q-13 0 -13 -11q0 -6 5 -6q4 0 4 3t-1.5 3.5t-1.5 2.5q0 5 7 5q10 0 10 -12q0 -4 -2 -6q-16 2 -16 -6
q0 -6 8 -6q6 0 11 5q6 -5 6 -15q0 -14 -12 -14t-12 9q0 3 3 3q1 0 2 -1t3 -1q4 0 4 5t-7 5q-9 0 -9 -10q0 -13 16 -13q13 0 19 5.5t6 13.5zM589 537q0 12 -14 17q5 3 5 9q0 5 -5 10t-16 5q-13 0 -13 -11q0 -6 5 -6q4 0 4 3t-1.5 3.5t-1.5 2.5q0 5 7 5q10 0 10 -12
q0 -4 -2 -6q-16 2 -16 -6q0 -6 8 -6q6 0 11 5q6 -5 6 -15q0 -14 -12 -14t-12 9q0 3 3 3q1 0 2 -1t3 -1q4 0 4 5t-7 5q-9 0 -9 -10q0 -13 16 -13q13 0 19 5.5t6 13.5zM696 540q0 15 -11.5 26.5t-25.5 11.5q-7 0 -15 -5t-8 -17q0 -16 11.5 -27t25.5 -11q7 0 15 5t8 17z
M827 624h-685v-6h685v6zM439 664q-2 -1 -3 0q-2 0 -2 5v21q0 3 2 5h3v2h-29l-2 -10l2 -1q0 2 2 4q2 4 7 4h4q4 0 4 -3v-10h-4q-3 0 -5 2q-1 1 -1 3h-2v-13h2q0 1 1 3q3 3 5 3h4v-11q0 -3 -4 -3h-4q-4 0 -8 4q-2 2 -2 5l-2 -1l2 -11h30v2zM504 664q-2 -1 -3 0q-3 0 -3 5v21
q0 3 3 5h3v2h-18v-1v-1h2q3 -3 3 -5v-9h-17v9q0 3 2 5h3v1v1h-17v-2h2q3 -3 3 -5v-21q0 -2 -1 -2.5t-2 -1.5t-2 -1v-2h17v2q-2 0 -3 1q-2 2 -2 4v10h17v-10q0 -5 -3 -5q-1 -1 -2 0v-2h18v2zM559 686v4q0 2 -0.5 4t-0.5 4q-2 -1 -17 -1t-18 1q0 -2 -0.5 -4t-0.5 -4v-4h2
q1 2 3 4q5 5 7 5q3 0 3 -3v-23q0 -5 -3 -5q-1 -1 -2 0v-2h17v2q-2 -1 -3 0q-2 0 -2 5v23q0 3 3 3t8 -5q2 -2 2 -4h2zM284 -101q0 -4 -4 -4t-4 4t4 4t4 -4zM716 -101q0 -4 -4 -4t-4 4t4 4t4 -4zM143 -105h-1l-11 23l-10 -23h-1l-12 34l6 1l7 -23l10 23h1l10 -23l7 22h6z
M199 -105h-1l-11 23l-10 -23h-1l-12 34l6 1l7 -23l10 23h1l10 -23l7 22h6zM255 -105h-1l-11 23l-10 -23h-1l-12 34l6 1l7 -23l10 23h1l10 -23l7 22h6zM323 -76h-12v-28h-6v28h-12v5h30v-5zM351 -90v-14h-6v14l-14 19l6 1l11 -15l9 14h7zM400 -82q0 -12 -17 -12v-10h-6v33
q14 2 18.5 -2t4.5 -9zM447 -87q0 -8 -4.5 -13t-12.5 -5t-12.5 5t-4.5 12q0 8 5 13t13 5q7 0 11.5 -5t4.5 -12zM491 -101q-6 -4 -13 -4q-8 0 -13 4.5t-5 12.5t5.5 13t13.5 5q6 0 12 -4l-2 -5q-4 4 -11 4q-12 0 -12 -13q0 -12 13 -12q2 0 6 2v7h-9v5h15v-15zM527 -104l-8 11
h-5v-11h-6v33q14 2 18.5 -1.5t4.5 -8.5q0 -7 -7 -10l10 -13h-7zM570 -104l-4 8h-14l-3 -8h-6l15 34h2l16 -34h-6zM612 -82q0 -12 -17 -12v-10h-6v33q14 2 18.5 -2t4.5 -9zM650 -104v15h-16v-15h-6v33h6v-13h16v13h6v-33h-6zM689 -90v-14h-6v14l-14 19l6 1l11 -15l9 14h7z
M757 -102q-3 -3 -10 -3q-18 0 -18 17q0 8 5 13t13 5q6 0 11 -3l-2 -5q-3 3 -9 3q-5 0 -8.5 -3.5t-3.5 -8.5q0 -13 13 -13q4 0 10 4zM806 -87q0 -8 -4.5 -13t-12.5 -5t-12.5 5t-4.5 12q0 8 5 13t13 5q7 0 11.5 -5t4.5 -12zM853 -104l-3 20l-10 -21h-2l-10 21l-3 -20h-6l6 34
h1l13 -26l13 26h1l6 -34h-6zM101 0v750h767v-750h-767z" />
  </font>
</defs>
</svg>
