<?xml version="1.0" standalone="no"?>
<!DOCTYPE svg PUBLIC "-//W3C//DTD SVG 1.1//EN" "http://www.w3.org/Graphics/SVG/1.1/DTD/svg11.dtd" >
<svg xmlns="http://www.w3.org/2000/svg" xmlns:xlink="http://www.w3.org/1999/xlink" version="1.1">
<metadata>
Created by FontForge 20150318 at Thu Jun 11 14:09:31 2015
 By uniteet7
Copyright (C) 2000, 2007 Hoefler &#38; Frere-Jones. http://www.typography.com
</metadata>
<defs>
<font id="GothamLightIta" horiz-adv-x="500" >
  <font-face 
    font-family="GothamLightIta"
    font-weight="300"
    font-style="italic"
    font-stretch="normal"
    units-per-em="1000"
    panose-1="0 0 0 0 0 0 0 0 0 0"
    ascent="800"
    descent="-200"
    x-height="510"
    cap-height="700"
    bbox="-121 -225 1206 986"
    underline-thickness="50"
    underline-position="-50"
    slope="-15"
    unicode-range="U+0020-FB04"
  />
<missing-glyph 
d="M0 -200v1000h500v-1000h-500zM71 750l179 -390l179 390h-358zM50 -76l172 376l-172 376v-752zM450 676l-172 -376l172 -376v752zM250 240l-179 -390h358z" />
    <glyph glyph-name="f_f" unicode="ff" horiz-adv-x="724" 
d="M417 0l125 465h-74l12 45h74l20 74q39 146 163 146q57 0 102 -24l-12 -44q-51 24 -92 24q-85 0 -115 -113l-17 -63h184l-12 -45h-184l-125 -465h-49zM55 0l125 465h-74l12 45h74l20 74q39 146 163 146q57 0 102 -24l-12 -44q-51 24 -92 24q-86 0 -115 -113l-17 -63h184
l-12 -45h-184l-125 -465h-49z" />
    <glyph glyph-name="fi" unicode="fi" horiz-adv-x="612" 
d="M561 643l18 67h61l-18 -67h-61zM55 0l125 465h-74l12 45h74l20 74q39 146 163 146q57 0 102 -24l-12 -44q-51 24 -92 24q-86 0 -115 -113l-17 -63h184l-12 -45h-184l-125 -465h-49zM394 0l137 510h49l-137 -510h-49z" />
    <glyph glyph-name="fl" unicode="fl" horiz-adv-x="612" 
d="M394 0l196 730h49l-196 -730h-49zM55 0l125 465h-74l12 45h74l20 74q39 146 163 146q57 0 102 -24l-12 -44q-51 24 -92 24q-86 0 -115 -113l-17 -63h184l-12 -45h-184l-125 -465h-49z" />
    <glyph glyph-name="f_f_i" unicode="ffi" horiz-adv-x="974" 
d="M923 643l18 67h61l-18 -67h-61zM417 0l125 465h-74l12 45h74l20 74q39 146 163 146q57 0 102 -24l-12 -44q-51 24 -92 24q-85 0 -115 -113l-17 -63h184l-12 -45h-184l-125 -465h-49zM55 0l125 465h-74l12 45h74l20 74q39 146 163 146q57 0 102 -24l-12 -44q-51 24 -92 24
q-86 0 -115 -113l-17 -63h184l-12 -45h-184l-125 -465h-49zM756 0l137 510h49l-137 -510h-49z" />
    <glyph glyph-name="f_f_l" unicode="ffl" horiz-adv-x="974" 
d="M756 0l196 730h49l-196 -730h-49zM417 0l125 465h-74l12 45h74l20 74q39 146 163 146q57 0 102 -24l-12 -44q-51 24 -92 24q-85 0 -115 -113l-17 -63h184l-12 -45h-184l-125 -465h-49zM55 0l125 465h-74l12 45h74l20 74q39 146 163 146q57 0 102 -24l-12 -44
q-51 24 -92 24q-86 0 -115 -113l-17 -63h184l-12 -45h-184l-125 -465h-49z" />
    <glyph glyph-name=".notdef" 
d="M0 -200v1000h500v-1000h-500zM71 750l179 -390l179 390h-358zM50 -76l172 376l-172 376v-752zM450 676l-172 -376l172 -376v752zM250 240l-179 -390h358z" />
    <glyph glyph-name=".null" horiz-adv-x="0" 
 />
    <glyph glyph-name="nonmarkingreturn" horiz-adv-x="333" 
 />
    <glyph glyph-name="space" unicode=" " horiz-adv-x="300" 
 />
    <glyph glyph-name="exclam" unicode="!" horiz-adv-x="251" 
d="M92 183l105 447l19 70h58l-19 -70l-135 -447h-28zM24 0l23 85h66l-23 -85h-66z" />
    <glyph glyph-name="quotedbl" unicode="&#x22;" horiz-adv-x="410" 
d="M281 446l93 254h63v-5l-127 -249h-29zM101 446l93 254h63v-5l-127 -249h-29z" />
    <glyph glyph-name="numbersign" unicode="#" horiz-adv-x="678" 
d="M91 0l65 187h-121l12 47h125l83 236h-133l12 47h137l64 183h48l-64 -183h207l64 183h48l-64 -183h121l-12 -47h-125l-83 -236h133l-12 -47h-137l-65 -187h-48l65 187h-207l-65 -187h-48zM221 234h206l83 236h-207z" />
    <glyph glyph-name="dollar" unicode="$" horiz-adv-x="618" 
d="M190 -98l28 103q-136 21 -219 117l38 33q74 -86 198 -104l77 288q-98 37 -138.5 75.5t-40.5 98.5q0 80 66.5 133.5t165.5 53.5q16 0 44 -2l16 60h49l-18 -67q101 -19 172 -89l-36 -36q-61 61 -153 80l-73 -272q92 -33 132.5 -74t40.5 -102q0 -86 -71 -142t-184 -56h-19
l-26 -98h-49zM278 47q90 -3 149 38t59 108q0 42 -30 72.5t-103 59.5zM325 389l71 262q-87 12 -148.5 -28t-61.5 -105q0 -44 31.5 -72.5t107.5 -56.5z" />
    <glyph glyph-name="percent" unicode="%" horiz-adv-x="821" 
d="M230 346q-60 0 -98.5 41.5t-38.5 101.5q0 86 56 152.5t135 66.5q60 0 98.5 -41.5t38.5 -101.5q0 -86 -56 -152.5t-135 -66.5zM65 0l682 700h60l-682 -700h-60zM588 -7q-60 0 -98.5 41.5t-38.5 101.5q0 86 56 152.5t135 66.5q60 0 98.5 -41.5t38.5 -101.5
q0 -86 -56 -152.5t-135 -66.5zM234 389q56 0 97 53.5t41 117.5q0 48 -24 76.5t-68 28.5q-56 0 -97 -53.5t-41 -117.5q0 -48 24 -76.5t68 -28.5zM592 36q56 0 97 53.5t41 117.5q0 48 -24 76.5t-68 28.5q-56 0 -97 -53.5t-41 -117.5q0 -48 24 -76.5t68 -28.5z" />
    <glyph glyph-name="ampersand" unicode="&#x26;" horiz-adv-x="690" 
d="M572 -14l-85 121q-61 -60 -120 -88.5t-136 -28.5q-86 0 -143 47t-57 128q0 85 62.5 146.5t182.5 91.5q-47 76 -47 133q0 75 54.5 125.5t129.5 50.5q74 0 119 -40t45 -105q0 -131 -226 -192l142 -201q58 66 116 167l39 -23q-68 -112 -127 -178l90 -128zM326 411
q200 52 200 154q0 46 -31.5 74.5t-83.5 28.5q-53 0 -92 -38.5t-39 -92.5q0 -56 46 -126zM237 36q116 0 223 105l-159 225q-109 -26 -163 -78t-54 -117q0 -62 41.5 -98.5t111.5 -36.5z" />
    <glyph glyph-name="quotesingle" unicode="'" horiz-adv-x="230" 
d="M101 446l93 254h63v-5l-127 -249h-29z" />
    <glyph glyph-name="parenleft" unicode="(" horiz-adv-x="430" 
d="M273 -140q-174 155 -174 358q0 154 99.5 287.5t296.5 213.5l17 -37q-95 -41 -166.5 -95t-113 -115t-61.5 -124t-20 -129q0 -103 39 -179.5t111 -150.5z" />
    <glyph glyph-name="parenright" unicode=")" horiz-adv-x="430" 
d="M-47 -139l-17 37q95 41 166.5 95t113 115t61.5 124t20 129q0 103 -39 179.5t-111 150.5l28 29q174 -155 174 -358q0 -154 -99.5 -287.5t-296.5 -213.5z" />
    <glyph glyph-name="asterisk" unicode="*" horiz-adv-x="430" 
d="M270 406l-41 10l42 121l-121 -42l-12 41l129 24l-100 84l31 30l84 -97l24 125l41 -10l-42 -121l121 42l12 -41l-129 -24l100 -84l-31 -30l-84 97z" />
    <glyph glyph-name="plus" unicode="+" horiz-adv-x="620" 
d="M247 113l58 215h-217l13 48h217l58 215h50l-58 -215h217l-13 -48h-217l-58 -215h-50z" />
    <glyph glyph-name="comma" unicode="," horiz-adv-x="231" 
d="M-32 -106l-7 24q69 24 80 82h-27l23 85h66l-20 -74q-15 -52 -40 -77.5t-75 -39.5z" />
    <glyph glyph-name="hyphen" unicode="-" horiz-adv-x="409" 
d="M74 269l15 56h268l-15 -56h-268z" />
    <glyph glyph-name="period" unicode="." horiz-adv-x="231" 
d="M14 0l23 85h66l-23 -85h-66z" />
    <glyph glyph-name="slash" unicode="/" 
d="M-121 -128l716 926h54l-716 -926h-54z" />
    <glyph glyph-name="zero" unicode="0" horiz-adv-x="709" 
d="M317 -12q-112 0 -173.5 72.5t-61.5 189.5q0 114 46 220t130 174t184 68q112 0 173.5 -72.5t61.5 -189.5q0 -114 -46 -220t-130 -174t-184 -68zM320 35q79 0 150 61t112 156.5t41 197.5q0 94 -48 154.5t-136 60.5q-79 0 -150 -61t-112 -156.5t-41 -197.5q0 -94 48 -154.5
t136 -60.5z" />
    <glyph glyph-name="one" unicode="1" horiz-adv-x="334" 
d="M93 0l173 645l-147 -46l-2 47l176 59h41l-189 -705h-52z" />
    <glyph glyph-name="two" unicode="2" horiz-adv-x="588" 
d="M-19 0l9 39l418 325q64 50 93.5 90.5t29.5 87.5q0 53 -40 87t-110 34q-106 0 -200 -100l-37 32q111 115 239 115q89 0 145.5 -46.5t56.5 -120.5q0 -58 -35.5 -107t-109.5 -106l-362 -280h404l-13 -50h-488z" />
    <glyph glyph-name="three" unicode="3" horiz-adv-x="606" 
d="M250 -12q-87 0 -148.5 36.5t-91.5 100.5l43 24q59 -114 200 -114q93 0 154 49.5t61 126.5q0 66 -52.5 99.5t-143.5 33.5h-29l-11 26l312 281h-375l14 49h450l-10 -37l-307 -277q89 -4 148 -48.5t59 -122.5q0 -98 -80 -162.5t-193 -64.5z" />
    <glyph glyph-name="four" unicode="4" horiz-adv-x="645" 
d="M369 0l46 171h-379l-8 39l533 495h48l-131 -489h114l-12 -45h-114l-46 -171h-51zM99 216h328l109 406z" />
    <glyph glyph-name="five" unicode="5" horiz-adv-x="601" 
d="M252 -12q-153 0 -236 125l43 27q72 -107 196 -107q99 0 162.5 58t63.5 138q0 70 -47 110t-121 40q-82 0 -161 -44l-33 26l111 339h378l-14 -50h-332l-86 -257q23 13 64.5 23t72.5 10q102 0 162 -52.5t60 -142.5q0 -101 -79 -172t-204 -71z" />
    <glyph glyph-name="six" unicode="6" horiz-adv-x="640" 
d="M317 -12q-102 0 -166 64q-68 68 -68 193q0 112 38.5 208t101.5 159q100 100 224 100q126 0 204 -93l-38 -33q-70 79 -169 79t-181 -82q-49 -49 -83 -121.5t-39 -144.5q35 52 90.5 85t127.5 33q102 0 163 -60t61 -144q0 -99 -76 -171t-190 -72zM320 34q90 0 149.5 58
t59.5 139q0 62 -45 109t-128 47q-93 0 -153.5 -56.5t-60.5 -129.5q0 -72 46 -118q49 -49 132 -49z" />
    <glyph glyph-name="seven" unicode="7" horiz-adv-x="578" 
d="M80 0l471 650h-403l14 50h464l-11 -38l-475 -662h-60z" />
    <glyph glyph-name="eight" unicode="8" horiz-adv-x="641" 
d="M295 -10q-113 0 -184 53t-71 130q0 81 60 132.5t154 65.5q-46 17 -76.5 56t-30.5 93q0 81 72 135.5t177 54.5q101 0 166.5 -50t65.5 -129q0 -71 -52 -119.5t-129 -62.5q51 -18 87 -60t36 -98q0 -87 -78.5 -144t-196.5 -57zM375 380q93 0 146 44.5t53 103.5t-49.5 97
t-128.5 38q-87 0 -141 -42t-54 -105q0 -58 49 -97t125 -39zM298 37q98 0 158 43.5t60 112.5q0 59 -55.5 101.5t-146.5 42.5q-99 0 -159.5 -46t-60.5 -112q0 -63 56 -102.5t148 -39.5z" />
    <glyph glyph-name="nine" unicode="9" horiz-adv-x="640" 
d="M243 -13q-128 0 -210 99l38 33q75 -85 175 -85q98 0 180 82q49 48 82.5 119t39.5 144q-83 -123 -220 -123q-102 0 -163 61t-60 147q1 101 78 174t190 73q101 0 165 -64q68 -68 68 -193q0 -112 -38.5 -208t-101.5 -159q-100 -100 -223 -100zM335 304q90 0 151 59.5
t61 136.5q0 69 -46 115q-50 50 -132 50q-90 0 -149.5 -59.5t-60.5 -141.5q-1 -64 44 -112t132 -48z" />
    <glyph glyph-name="colon" unicode=":" horiz-adv-x="241" 
d="M133 425l23 85h66l-23 -85h-66zM19 0l23 85h66l-23 -85h-66z" />
    <glyph glyph-name="semicolon" unicode=";" horiz-adv-x="241" 
d="M133 425l23 85h66l-23 -85h-66zM-27 -106l-7 24q69 24 80 82h-27l23 85h66l-20 -74q-15 -52 -40 -77.5t-75 -39.5z" />
    <glyph glyph-name="less" unicode="&#x3c;" horiz-adv-x="620" 
d="M482 91l-400 241l11 40l529 241l-15 -59l-458 -206l347 -208z" />
    <glyph glyph-name="equal" unicode="=" horiz-adv-x="620" 
d="M132 439l13 51h454l-13 -51h-454zM71 214l14 51h454l-14 -51h-454z" />
    <glyph glyph-name="greater" unicode="&#x3e;" horiz-adv-x="620" 
d="M49 91l15 59l458 206l-347 208l14 49l400 -241l-11 -40z" />
    <glyph glyph-name="question" unicode="?" horiz-adv-x="534" 
d="M194 183l30 162l7 5q113 8 181.5 56.5t68.5 126.5q0 61 -43 95t-109 34q-108 0 -196 -88l-32 34q101 101 232 101q92 0 146.5 -49t54.5 -126q0 -94 -75 -152t-190 -74l-43 -125h-32zM128 0l23 85h66l-23 -85h-66z" />
    <glyph glyph-name="at" unicode="@" horiz-adv-x="980" 
d="M486 -161q-191 0 -305.5 107.5t-114.5 284.5q0 127 66 238t179.5 177t245.5 66q181 0 286 -100t105 -253q0 -132 -65 -209t-141 -77q-52 0 -83 26.5t-38 73.5q-79 -102 -186 -102q-67 0 -112 45.5t-45 120.5q0 107 75 186t168 79q60 0 98.5 -30.5t55.5 -77.5l30 98
l47 -13l-75 -242q-16 -54 2 -90.5t68 -36.5q59 0 112.5 66t53.5 183q0 138 -96 229.5t-260 91.5q-186 0 -321 -134t-135 -315q0 -162 105.5 -261t279.5 -99q108 0 207 45l14 -29q-105 -48 -221 -48zM445 118q76 0 141 64.5t65 142.5q0 57 -35 93.5t-93 36.5
q-78 0 -133.5 -64t-55.5 -152q0 -56 31 -88.5t80 -32.5z" />
    <glyph glyph-name="A" unicode="A" horiz-adv-x="759" 
d="M-34 0l515 705h50l137 -705h-53l-36 196h-413l-142 -196h-58zM200 243h369l-75 405z" />
    <glyph glyph-name="B" unicode="B" horiz-adv-x="717" 
d="M36 0l188 700h259q96 0 153 -42.5t57 -116.5t-52 -123.5t-133 -65.5q60 -16 97 -52t37 -94q0 -91 -79 -148.5t-212 -57.5h-315zM189 377h216q106 0 170 44t64 115q0 57 -42.5 86.5t-118.5 29.5h-215zM101 48h253q109 0 172 42t63 116q0 59 -51 91t-134 32h-228z" />
    <glyph glyph-name="C" unicode="C" horiz-adv-x="738" 
d="M378 -13q-120 0 -203 77.5t-83 206.5q0 112 55.5 214t153 164.5t209.5 62.5q92 0 157.5 -41.5t99.5 -109.5l-45 -24q-36 63 -86.5 95.5t-128.5 32.5q-148 0 -254.5 -120t-106.5 -272q0 -109 66.5 -173.5t170.5 -64.5q74 0 129.5 26.5t107.5 78.5l35 -32
q-116 -121 -277 -121z" />
    <glyph glyph-name="D" unicode="D" horiz-adv-x="771" 
d="M36 0l188 700h157q178 0 272 -94q77 -77 77 -200q0 -162 -109 -271q-64 -64 -156.5 -99.5t-199.5 -35.5h-229zM101 48h171q190 0 310 120q94 94 94 234q0 108 -65 171q-79 79 -233 79h-115z" />
    <glyph glyph-name="E" unicode="E" horiz-adv-x="649" 
d="M36 0l188 700h493l-13 -48h-441l-74 -275h396l-13 -48h-396l-75 -281h446l-13 -48h-498z" />
    <glyph glyph-name="F" unicode="F" horiz-adv-x="656" 
d="M36 0l188 700h493l-13 -48h-441l-77 -287h396l-13 -48h-396l-85 -317h-52z" />
    <glyph glyph-name="G" unicode="G" horiz-adv-x="786" 
d="M396 -13q-132 0 -217 81t-85 214q0 108 55 206.5t154.5 161t217.5 62.5q173 0 256 -130l-41 -27q-35 53 -85 81.5t-135 28.5q-102 0 -188 -56t-133 -143t-47 -182q0 -116 69 -183t182 -67q116 0 202 57l64 224h-233l13 48h284l-86 -301q-115 -75 -247 -75z" />
    <glyph glyph-name="H" unicode="H" horiz-adv-x="756" 
d="M36 0l188 700h52l-87 -324h443l87 324h52l-188 -700h-52l88 328h-443l-88 -328h-52z" />
    <glyph glyph-name="I" unicode="I" horiz-adv-x="274" 
d="M43 0l188 700h52l-188 -700h-52z" />
    <glyph glyph-name="J" unicode="J" horiz-adv-x="538" 
d="M196 -10q-83 0 -132.5 44t-68.5 117l46 16q40 -130 153 -130q75 0 127 52q50 50 78 153l123 458h52l-125 -465q-31 -117 -93 -179q-66 -66 -160 -66z" />
    <glyph glyph-name="K" unicode="K" horiz-adv-x="714" 
d="M36 0l188 700h52l-122 -455l560 455h77l-389 -313l212 -387h-60l-195 357l-224 -182l-47 -175h-52z" />
    <glyph glyph-name="L" unicode="L" horiz-adv-x="600" 
d="M36 0l188 700h52l-175 -652h411l-13 -48h-463z" />
    <glyph glyph-name="M" unicode="M" horiz-adv-x="869" 
d="M36 0l188 700h43l170 -414l392 414h55l-188 -700h-52l163 608l-385 -403h-4l-169 403l-163 -608h-50z" />
    <glyph glyph-name="N" unicode="N" horiz-adv-x="786" 
d="M36 0l188 700h48l315 -613l165 613h50l-188 -700h-38l-322 626l-168 -626h-50z" />
    <glyph glyph-name="O" unicode="O" horiz-adv-x="846" 
d="M398 -13q-131 0 -216.5 86.5t-85.5 214.5q0 108 53.5 206t147 158t202.5 60q131 0 216.5 -86.5t85.5 -214.5q0 -108 -53.5 -206t-147 -158t-202.5 -60zM398 34q96 0 177 54t126.5 140.5t45.5 182.5q0 109 -69 181.5t-179 72.5q-96 0 -177 -54t-126.5 -140.5t-45.5 -182.5
q0 -109 69 -181.5t179 -72.5z" />
    <glyph glyph-name="P" unicode="P" horiz-adv-x="663" 
d="M36 0l188 700h218q130 0 193 -63q48 -48 48 -125q0 -118 -93 -184t-253 -66h-178l-71 -262h-52zM171 309h168q141 0 216.5 52.5t75.5 148.5q0 57 -36 93q-49 49 -154 49h-178z" />
    <glyph glyph-name="Q" unicode="Q" horiz-adv-x="846" 
d="M692 -24l-72 85q-103 -74 -222 -74q-131 0 -216.5 86.5t-85.5 214.5q0 108 53.5 206t147 158t202.5 60q131 0 216.5 -86.5t85.5 -214.5q0 -90 -39 -175t-107 -146l75 -82zM398 34q103 0 190 63l-117 130l38 33l114 -134q58 54 91 129.5t33 155.5q0 109 -69 181.5
t-179 72.5q-96 0 -177 -54t-126.5 -140.5t-45.5 -182.5q0 -109 69 -181.5t179 -72.5z" />
    <glyph glyph-name="R" unicode="R" horiz-adv-x="713" 
d="M36 0l188 700h251q126 0 188 -62q44 -44 44 -114q0 -84 -62 -146q-68 -68 -206 -83l154 -295h-60l-150 290h-217l-78 -290h-52zM178 337h210q149 0 220 71q47 47 47 113q0 52 -31 83q-48 48 -151 48h-210z" />
    <glyph glyph-name="S" unicode="S" horiz-adv-x="638" 
d="M299 -10q-184 0 -279 134l40 29q46 -59 104 -87.5t140 -28.5q86 0 144 43.5t58 109.5q0 46 -34 77t-119 64q-111 43 -155.5 83t-44.5 103q0 81 70 137t181 56q76 0 139.5 -29.5t103.5 -77.5l-40 -32q-80 92 -208 92q-87 0 -140 -42t-53 -100q0 -47 38 -77.5t129 -65.5
q100 -38 143 -79.5t43 -104.5q0 -86 -74 -145t-186 -59z" />
    <glyph glyph-name="T" unicode="T" horiz-adv-x="615" 
d="M209 0l175 652h-244l13 48h540l-13 -48h-244l-175 -652h-52z" />
    <glyph glyph-name="U" unicode="U" horiz-adv-x="756" 
d="M348 -11q-122 0 -187 61t-65 159q0 54 14 108l102 383h52l-108 -407q-9 -36 -9 -80q0 -79 52 -128t153 -49q99 0 171 72q65 65 98 186l109 406h52l-112 -417q-35 -130 -111 -206q-88 -88 -211 -88z" />
    <glyph glyph-name="V" unicode="V" horiz-adv-x="714" 
d="M259 -5l-117 705h54l99 -644l446 644h59l-495 -705h-46z" />
    <glyph glyph-name="W" unicode="W" horiz-adv-x="1074" 
d="M215 -5l-65 705h54l53 -623l372 625h40l38 -625l387 623h58l-443 -705h-42l-42 608l-368 -608h-42z" />
    <glyph glyph-name="X" unicode="X" horiz-adv-x="692" 
d="M-23 0l366 362l-186 338h56l167 -308l310 308h67l-352 -347l192 -353h-56l-173 323l-324 -323h-67z" />
    <glyph glyph-name="Y" unicode="Y" horiz-adv-x="668" 
d="M234 0l76 284l-183 416h57l161 -376l364 376h70l-421 -429l-72 -271h-52z" />
    <glyph glyph-name="Z" unicode="Z" horiz-adv-x="662" 
d="M-19 0l8 29l636 624h-452l13 47h533l-8 -29l-636 -624h472l-13 -47h-553z" />
    <glyph glyph-name="bracketleft" unicode="[" horiz-adv-x="430" 
d="M16 -130l223 830h273l-11 -38h-227l-202 -754h227l-10 -38h-273z" />
    <glyph glyph-name="backslash" unicode="\" 
d="M368 -128l-221 926h44l221 -926h-44z" />
    <glyph glyph-name="bracketright" unicode="]" horiz-adv-x="430" 
d="M-67 -130l11 38h227l202 754h-227l10 38h273l-223 -830h-273z" />
    <glyph glyph-name="asciicircum" unicode="^" 
d="M129 493l214 210h44l102 -210h-47l-83 167l-173 -167h-57z" />
    <glyph glyph-name="underscore" unicode="_" horiz-adv-x="600" 
d="M-114 -160l12 44h605l-12 -44h-605z" />
    <glyph glyph-name="grave" unicode="`" 
d="M368 595l-79 103l62 30l52 -133h-35z" />
    <glyph glyph-name="a" unicode="a" horiz-adv-x="571" 
d="M190 -12q-69 0 -118 37.5t-49 105.5q0 84 64 134.5t166 50.5q90 0 196 -29l4 14q7 26 7 51q0 58 -39.5 89t-114.5 31q-70 0 -148 -27l-9 44q81 29 161 29q93 0 145.5 -42.5t52.5 -116.5q0 -29 -10 -67l-78 -292h-48l23 88q-84 -100 -205 -100zM199 33q75 0 141.5 47.5
t86.5 122.5l12 45q-96 24 -193 24q-76 0 -123.5 -37.5t-47.5 -97.5q0 -47 33.5 -75.5t90.5 -28.5z" />
    <glyph glyph-name="b" unicode="b" horiz-adv-x="654" 
d="M312 -13q-79 0 -130 40.5t-73 102.5l-35 -130h-49l196 730h49l-87 -320q94 112 212 112q89 0 147 -60.5t58 -154.5q0 -134 -86 -227t-202 -93zM310 33q101 0 169 80t68 188q0 78 -44 126.5t-114 48.5q-96 0 -175.5 -82t-79.5 -183q0 -75 49.5 -126.5t126.5 -51.5z" />
    <glyph glyph-name="c" unicode="c" horiz-adv-x="563" 
d="M272 -12q-89 0 -155.5 60t-66.5 160q0 126 89.5 220t210.5 94q73 0 123.5 -35t76.5 -88l-41 -23q-57 100 -162 100q-97 0 -170.5 -80t-73.5 -185q0 -82 50.5 -129.5t121.5 -47.5q87 0 165 73l33 -32q-90 -87 -201 -87z" />
    <glyph glyph-name="d" unicode="d" horiz-adv-x="654" 
d="M259 -13q-89 0 -147 60.5t-58 154.5q0 134 86 227t202 93q79 0 130 -40.5t73 -102.5l94 351h49l-195 -730h-49l26 99q-94 -112 -211 -112zM265 33q96 0 175.5 82t79.5 183q0 75 -49.5 126.5t-126.5 51.5q-101 0 -169 -80t-68 -188q0 -78 44 -126.5t114 -48.5z" />
    <glyph glyph-name="e" unicode="e" horiz-adv-x="583" 
d="M524 238h-419q-2 -12 -2 -34q0 -77 47 -123.5t122 -46.5q91 0 174 68l29 -35q-95 -79 -203 -79q-98 0 -160 60t-62 154q0 123 87 221.5t208 98.5q92 0 142.5 -56t50.5 -139q0 -49 -14 -89zM344 477q-83 0 -145 -56t-85 -139h370q4 18 4 42q0 66 -36.5 109.5t-107.5 43.5z
" />
    <glyph glyph-name="f" unicode="f" horiz-adv-x="362" 
d="M55 0l125 465h-74l12 45h74l20 74q39 146 163 146q57 0 102 -24l-12 -44q-51 24 -92 24q-86 0 -115 -113l-17 -63h184l-12 -45h-184l-125 -465h-49z" />
    <glyph glyph-name="g" unicode="g" horiz-adv-x="654" 
d="M236 -162q-67 0 -131 25.5t-110 69.5l36 36q90 -85 207 -85q100 0 157 57q45 45 70 134l18 64q-95 -101 -210 -101q-86 0 -149.5 54.5t-63.5 143.5q0 123 88 204.5t201 81.5q140 0 199 -136l33 124h49l-119 -447q-27 -99 -80 -152q-73 -73 -195 -73zM282 84
q95 0 169.5 70.5t74.5 157.5q0 65 -49.5 114t-129.5 49q-93 0 -163.5 -67t-70.5 -169q0 -73 50 -114t119 -41z" />
    <glyph glyph-name="h" unicode="h" horiz-adv-x="609" 
d="M25 0l196 730h49l-85 -315q89 107 193 107q76 0 121.5 -44.5t45.5 -117.5q0 -28 -11 -72l-76 -288h-49l78 292q8 30 8 63q0 57 -35 90t-96 33q-67 0 -129 -54t-84 -136l-77 -288h-49z" />
    <glyph glyph-name="i" unicode="i" horiz-adv-x="250" 
d="M199 643l18 67h61l-18 -67h-61zM32 0l137 510h49l-137 -510h-49z" />
    <glyph glyph-name="j" unicode="j" horiz-adv-x="249" 
d="M199 643l18 67h61l-18 -67h-61zM-52 -163q-33 0 -63 10l12 44q28 -8 47 -8q56 0 75 69l150 558h49l-151 -562q-14 -53 -45 -82t-74 -29z" />
    <glyph glyph-name="k" unicode="k" horiz-adv-x="560" 
d="M25 0l196 730h49l-145 -541l396 321h71l-284 -228l152 -282h-57l-136 252l-160 -128l-33 -124h-49z" />
    <glyph glyph-name="l" unicode="l" horiz-adv-x="250" 
d="M32 0l196 730h49l-196 -730h-49z" />
    <glyph glyph-name="m" unicode="m" horiz-adv-x="951" 
d="M25 0l136 510h49l-25 -95q43 53 84.5 80t98.5 27q64 0 102 -36.5t47 -88.5q76 125 214 125q69 0 114 -45.5t45 -116.5q0 -20 -13 -72l-76 -288h-49l78 292q8 30 8 63q0 56 -33 89.5t-88 33.5q-62 0 -122 -54.5t-81 -135.5l-76 -288h-49l78 292q8 30 8 63q0 56 -33 89.5
t-88 33.5q-62 0 -122 -54.5t-81 -135.5l-77 -288h-49z" />
    <glyph glyph-name="n" unicode="n" horiz-adv-x="611" 
d="M25 0l136 510h49l-25 -95q89 107 193 107q76 0 121.5 -44.5t45.5 -117.5q0 -28 -11 -72l-76 -288h-49l78 292q8 30 8 63q0 57 -35 90t-96 33q-67 0 -129 -54t-84 -136l-77 -288h-49z" />
    <glyph glyph-name="o" unicode="o" horiz-adv-x="633" 
d="M278 -12q-101 0 -164 63.5t-63 162.5q0 122 91 215t212 93q101 0 164 -63.5t63 -162.5q0 -124 -92 -216t-211 -92zM283 34q95 0 170 78t75 182q0 85 -49 133.5t-130 48.5q-97 0 -171 -79t-74 -181q0 -85 49 -133.5t130 -48.5z" />
    <glyph glyph-name="p" unicode="p" horiz-adv-x="654" 
d="M-18 -160l179 670h49l-27 -100q94 112 212 112q89 0 147 -60.5t58 -154.5q0 -134 -86 -227t-202 -93q-79 0 -130 40.5t-73 102.5l-78 -290h-49zM310 33q101 0 169 80t68 188q0 78 -44 126.5t-114 48.5q-96 0 -175.5 -82t-79.5 -183q0 -75 49.5 -126.5t126.5 -51.5z" />
    <glyph glyph-name="q" unicode="q" horiz-adv-x="654" 
d="M401 -160l70 260q-94 -113 -212 -113q-89 0 -147 60.5t-58 154.5q0 134 86 227t202 93q80 0 130.5 -40.5t72.5 -101.5l35 130h49l-179 -670h-49zM265 33q96 0 175.5 82.5t79.5 183.5q0 75 -49.5 126t-126.5 51q-101 0 -169 -80t-68 -188q0 -78 44 -126.5t114 -48.5z" />
    <glyph glyph-name="r" unicode="r" horiz-adv-x="396" 
d="M25 0l136 510h49l-38 -145q115 161 262 153l-14 -54h-4q-92 0 -173.5 -69t-112.5 -186l-56 -209h-49z" />
    <glyph glyph-name="s" unicode="s" horiz-adv-x="495" 
d="M217 -11q-128 0 -216 88l35 35q81 -78 187 -78q51 0 91.5 28.5t40.5 72.5q0 31 -23.5 54t-87.5 47q-76 28 -109.5 58.5t-33.5 78.5q0 62 52.5 105t136.5 43q103 0 184 -68l-32 -37q-73 60 -157 60q-61 0 -96.5 -28t-35.5 -67q0 -31 23 -52t92 -48q76 -30 107.5 -61
t31.5 -77q0 -66 -56 -110t-134 -44z" />
    <glyph glyph-name="t" unicode="t" horiz-adv-x="396" 
d="M206 -9q-54 0 -88 25.5t-34 75.5q0 23 6 49l87 324h-74l12 45h74l44 163h49l-44 -163h176l-12 -45h-176l-87 -325q-5 -22 -5 -43q0 -61 83 -61q32 0 74 16l-13 -48q-35 -13 -72 -13z" />
    <glyph glyph-name="u" unicode="u" horiz-adv-x="609" 
d="M231 -12q-76 0 -121.5 44.5t-45.5 117.5q0 28 11 72l76 288h49l-78 -292q-8 -30 -8 -63q0 -57 35 -90t96 -33q67 0 129 54t84 136l77 288h49l-136 -510h-49l25 95q-89 -107 -193 -107z" />
    <glyph glyph-name="v" unicode="v" horiz-adv-x="557" 
d="M179 -4l-90 514h53l71 -455l313 455h59l-364 -514h-42z" />
    <glyph glyph-name="w" unicode="w" horiz-adv-x="845" 
d="M148 -4l-49 514h50l37 -444l273 446h39l35 -446l275 444h54l-325 -514h-43l-35 437l-270 -437h-41z" />
    <glyph glyph-name="x" unicode="x" horiz-adv-x="559" 
d="M-29 0l284 264l-135 246h56l112 -215l224 215h66l-268 -250l141 -260h-56l-118 229l-240 -229h-66z" />
    <glyph glyph-name="y" unicode="y" horiz-adv-x="568" 
d="M20 -163q-58 0 -108 35l27 40q36 -29 87 -29q40 0 78.5 27.5t84.5 92.5l-104 507h52l89 -456l307 456h59l-363 -528q-54 -78 -103.5 -111.5t-105.5 -33.5z" />
    <glyph glyph-name="z" unicode="z" horiz-adv-x="546" 
d="M-17 0l8 28l475 438h-344l12 44h424l-8 -28l-475 -438h361l-12 -44h-441z" />
    <glyph glyph-name="braceleft" unicode="{" horiz-adv-x="480" 
d="M312 -141q-82 18 -120 63t-38 104q0 36 23 120q9 32 9 55q0 67 -95 67h-26l10 38h26q77 0 112.5 40.5t56.5 143.5q21 108 79.5 162.5t191.5 62.5l-3 -37q-105 -6 -153.5 -53t-66.5 -140q-20 -103 -53.5 -146t-99.5 -54q69 -21 69 -83q0 -27 -9 -57q-22 -75 -22 -115
q0 -106 123 -140z" />
    <glyph glyph-name="bar" unicode="|" horiz-adv-x="286" 
d="M141 -128v926h44v-926h-44z" />
    <glyph glyph-name="braceright" unicode="}" horiz-adv-x="480" 
d="M-44 -141l3 37q105 6 153.5 53t66.5 140q20 103 53.5 146t99.5 54q-69 21 -69 83q0 27 9 57q22 75 22 115q0 106 -123 140l14 31q82 -18 120 -63t38 -104q0 -36 -23 -120q-9 -32 -9 -55q0 -67 95 -67h26l-10 -38h-26q-77 0 -112.5 -40.5t-56.5 -143.5
q-22 -108 -80 -162.5t-191 -62.5z" />
    <glyph glyph-name="asciitilde" unicode="~" horiz-adv-x="460" 
d="M125 245l-38 15q25 50 49 73t55 23q20 0 33.5 -8t33.5 -27q31 -30 48 -30q15 0 27.5 13.5t31.5 46.5l38 -15q-25 -50 -49 -73t-55 -23q-20 0 -33.5 8t-33.5 27q-31 30 -48 30q-15 0 -27.5 -14t-31.5 -46z" />
    <glyph glyph-name="uni00A0" unicode="&#xa0;" horiz-adv-x="300" 
 />
    <glyph glyph-name="exclamdown" unicode="&#xa1;" horiz-adv-x="251" 
d="M189 615l23 85h66l-23 -85h-66zM28 0l19 70l135 447h28l-105 -447l-19 -70h-58z" />
    <glyph glyph-name="cent" unicode="&#xa2;" horiz-adv-x="558" 
d="M204 105q-59 25 -94 78t-35 120q0 130 90 224t215 94q18 0 27 -1l34 86h50l-38 -94q95 -24 135 -113l-41 -23q-42 76 -114 93l-170 -433q17 -3 36 -3q98 0 179 73l33 -32q-94 -87 -215 -87q-22 0 -47 5l-39 -98h-50zM391 575h-14q-103 0 -176 -80t-73 -191
q0 -54 25 -95.5t70 -60.5z" />
    <glyph glyph-name="sterling" unicode="&#xa3;" horiz-adv-x="624" 
d="M-2 0l7 25l91 20l70 260h-86l13 48h86l35 131q27 102 80 155q68 68 163 68q126 0 186 -110l-43 -26q-55 89 -146 89q-71 0 -121 -50q-46 -46 -70 -135l-33 -122h298l-13 -48h-298l-69 -258h374l-13 -47h-511z" />
    <glyph glyph-name="yen" unicode="&#xa5;" horiz-adv-x="700" 
d="M251 0l33 125h-210l12 45h210l26 98h-210l12 45h190l-170 387h59l161 -376l364 376h68l-380 -387h184l-12 -45h-214l-26 -98h214l-12 -45h-214l-33 -125h-52z" />
    <glyph glyph-name="section" unicode="&#xa7;" horiz-adv-x="632" 
d="M288 -10q-66 0 -126 23.5t-95 58.5l33 37q33 -31 85 -52.5t110 -21.5q52 0 87 21.5t35 56.5q0 31 -32 54t-107 49q-100 35 -144 67t-44 79q0 58 56 93t142 35q-77 34 -77 96q0 57 52 90.5t129 33.5q66 0 126 -23.5t95 -58.5l-33 -37q-33 31 -85 52.5t-110 21.5
q-52 0 -87 -21.5t-35 -56.5q0 -31 32 -54t107 -49q100 -35 144 -67t44 -79q0 -58 -56 -93t-142 -35q77 -34 77 -96q0 -57 -52 -90.5t-129 -33.5zM392 245q62 0 104 26t42 63q0 29 -30.5 52t-102.5 48q-62 21 -117 21q-62 0 -104 -26t-42 -63q0 -29 30.5 -52t102.5 -48
q60 -21 117 -21z" />
    <glyph glyph-name="dieresis" unicode="&#xa8;" 
d="M376 595l22 80h69l-22 -80h-69zM213 595l22 80h69l-22 -80h-69z" />
    <glyph glyph-name="copyright" unicode="&#xa9;" horiz-adv-x="830" 
d="M439 -12q-151 0 -256 105.5t-105 254.5v2q0 149 106 255.5t257 106.5t256 -105.5t105 -254.5v-2q0 -149 -106 -255.5t-257 -106.5zM439 16q141 0 237 97.5t96 236.5v2q0 138 -95 235t-236 97t-237 -97.5t-96 -236.5v-2q0 -138 95 -235t236 -97zM444 166q-77 0 -129.5 55
t-52.5 133v2q0 77 53 133t130 56t141 -61l-30 -31q-54 52 -112 52q-59 0 -98.5 -43.5t-39.5 -104.5v-2q0 -61 40.5 -105t98.5 -44q60 0 115 52l28 -28q-66 -64 -144 -64z" />
    <glyph glyph-name="ordfeminine" unicode="&#xaa;" horiz-adv-x="390" 
d="M191 410q-36 0 -60.5 20.5t-24.5 54.5q0 48 36.5 77t94.5 29q39 0 97 -15l2 6q4 14 4 27q0 58 -78 58q-38 0 -80 -15l-7 35q48 17 94 17q53 0 82 -23.5t29 -64.5q0 -13 -6 -39l-43 -161h-40l14 50q-51 -56 -114 -56zM58 293l10 40h244l-10 -40h-244zM201 442
q38 0 75 27.5t47 64.5l4 14q-50 12 -90 12q-39 0 -64 -20t-25 -51q0 -21 14.5 -34t38.5 -13z" />
    <glyph glyph-name="guillemotleft" unicode="&#xab;" horiz-adv-x="515" 
d="M353 42l-104 209l2 8l216 209l36 -28l-192 -192l83 -184zM149 42l-104 209l2 8l216 209l36 -28l-192 -192l83 -184z" />
    <glyph glyph-name="registered" unicode="&#xae;" horiz-adv-x="416" 
d="M283 360q-73 0 -123.5 51t-50.5 123v1q0 72 51 123.5t123 51.5q73 0 123.5 -51t50.5 -123v-1q0 -72 -51 -123.5t-123 -51.5zM283 379q65 0 109.5 46t44.5 110v1q0 64 -44.5 109.5t-109.5 45.5t-109.5 -46t-44.5 -110v-1q0 -64 44.5 -109.5t109.5 -45.5zM218 451v175h78
q28 0 46.5 -14.5t18.5 -39.5q0 -40 -43 -53l49 -68h-35l-44 64h-42v-64h-28zM246 538h47q39 0 39 32q0 31 -39 31h-47v-63z" />
    <glyph glyph-name="macron" unicode="&#xaf;" 
d="M196 621l13 47h304l-13 -47h-304z" />
    <glyph glyph-name="degree" unicode="&#xb0;" horiz-adv-x="366" 
d="M214 411q-55 0 -90.5 36t-35.5 90q0 67 49.5 117.5t116.5 50.5q55 0 90.5 -36t35.5 -90q0 -67 -49.5 -117.5t-116.5 -50.5zM219 453q46 0 81 36.5t35 84.5q0 41 -24 65t-62 24q-46 0 -81 -36.5t-35 -84.5q0 -41 24 -65t62 -24z" />
    <glyph glyph-name="plusminus" unicode="&#xb1;" horiz-adv-x="620" 
d="M570 358h-207l-55 -203h-50l55 203h-207l13 48h207l54 203h50l-54 -203h207zM474 0h-463l13 48h463z" />
    <glyph glyph-name="acute" unicode="&#xb4;" 
d="M251 595l124 133l62 -30l-135 -103h-51z" />
    <glyph glyph-name="paragraph" unicode="&#xb6;" horiz-adv-x="486" 
d="M260 0l70 263q-101 6 -164.5 50t-63.5 133q0 119 87 186.5t239 67.5h73l-188 -700h-53z" />
    <glyph glyph-name="periodcentered" unicode="&#xb7;" horiz-adv-x="231" 
d="M82 255l23 85h66l-23 -85h-66z" />
    <glyph glyph-name="cedilla" unicode="&#xb8;" 
d="M118 -148l-48 26l125 132h43z" />
    <glyph glyph-name="ordmasculine" unicode="&#xba;" horiz-adv-x="390" 
d="M245 407q-58 0 -94 36.5t-36 92.5q0 67 49.5 118t117.5 51q57 0 93.5 -36.5t36.5 -92.5q0 -67 -49.5 -118t-117.5 -51zM60 293l10 40h268l-10 -40h-268zM248 444q49 0 85 39t36 91q0 42 -25 68t-65 26q-50 0 -86 -39t-36 -91q0 -42 25.5 -68t65.5 -26z" />
    <glyph glyph-name="guillemotright" unicode="&#xbb;" horiz-adv-x="515" 
d="M251 41l-36 28l192 192l-83 184l41 22l104 -209l-2 -8zM47 41l-36 28l192 192l-83 184l41 22l104 -209l-2 -8z" />
    <glyph glyph-name="questiondown" unicode="&#xbf;" horiz-adv-x="534" 
d="M368 615l23 85h66l-23 -85h-66zM252 -9q-92 0 -146.5 49t-54.5 126q0 94 75 152t190 74l43 125h32l-30 -162l-7 -5q-113 -8 -181.5 -56.5t-68.5 -126.5q0 -61 43 -95t109 -34q108 0 196 88l32 -34q-101 -101 -232 -101z" />
    <glyph glyph-name="Agrave" unicode="&#xc0;" horiz-adv-x="759" 
d="M-34 0l515 705h50l137 -705h-53l-36 196h-413l-142 -196h-58zM200 243h369l-75 405zM468 893l62 -118h-37l-83 90z" />
    <glyph glyph-name="Aacute" unicode="&#xc1;" horiz-adv-x="759" 
d="M-34 0l515 705h50l137 -705h-53l-36 196h-413l-142 -196h-58zM200 243h369l-75 405zM496 775l124 118l60 -28l-131 -90h-53z" />
    <glyph glyph-name="Acircumflex" unicode="&#xc2;" horiz-adv-x="759" 
d="M-34 0l515 705h50l137 -705h-53l-36 196h-413l-142 -196h-58zM200 243h369l-75 405zM393 775l132 107h46l74 -107h-50l-56 61l-90 -61h-56z" />
    <glyph glyph-name="Atilde" unicode="&#xc3;" horiz-adv-x="759" 
d="M-34 0l515 705h50l137 -705h-53l-36 196h-413l-142 -196h-58zM200 243h369l-75 405zM419 766l-36 10q22 47 44.5 67.5t51.5 20.5q20 0 62.5 -19t57.5 -19q18 0 30 10t28 36l36 -10q-22 -47 -44.5 -67t-51.5 -20q-20 0 -62.5 19t-57.5 19q-18 0 -30 -10t-28 -37z" />
    <glyph glyph-name="Adieresis" unicode="&#xc4;" horiz-adv-x="759" 
d="M-34 0l515 705h50l137 -705h-53l-36 196h-413l-142 -196h-58zM200 243h369l-75 405zM578 775l21 76h73l-21 -76h-73zM402 775l21 76h74l-21 -76h-74z" />
    <glyph glyph-name="Aring" unicode="&#xc5;" horiz-adv-x="759" 
d="M-34 0l489 669q-45 23 -45 72q0 45 36.5 76t84.5 31q41 0 67.5 -23.5t26.5 -59.5t-24.5 -64.5t-61.5 -38.5l129 -662h-53l-36 196h-413l-142 -196h-58zM200 243h369l-75 405zM508 690q31 0 54.5 20.5t23.5 51.5q0 23 -15.5 38.5t-43.5 15.5q-31 0 -54.5 -20.5
t-23.5 -51.5q0 -25 16.5 -39.5t42.5 -14.5z" />
    <glyph glyph-name="AE" unicode="&#xc6;" horiz-adv-x="1068" 
d="M-32 0l611 700h541l-13 -48h-431l-74 -275h386l-13 -48h-386l-75 -281h436l-13 -48h-488l53 196h-301l-170 -196h-63zM242 243h272l110 410h-27z" />
    <glyph glyph-name="Ccedilla" unicode="&#xc7;" horiz-adv-x="738" 
d="M271 -148l-48 26l106 113q-103 15 -170 90t-67 190q0 112 55.5 214t153 164.5t209.5 62.5q92 0 157.5 -41.5t99.5 -109.5l-45 -24q-36 63 -86.5 95.5t-128.5 32.5q-148 0 -254.5 -120t-106.5 -272q0 -109 66.5 -173.5t170.5 -64.5q74 0 129.5 26.5t107.5 78.5l35 -32
q-116 -121 -277 -121h-5z" />
    <glyph glyph-name="Egrave" unicode="&#xc8;" horiz-adv-x="649" 
d="M36 0l188 700h493l-13 -48h-441l-74 -275h396l-13 -48h-396l-75 -281h446l-13 -48h-498zM424 883l62 -118h-37l-83 90z" />
    <glyph glyph-name="Eacute" unicode="&#xc9;" horiz-adv-x="649" 
d="M36 0l188 700h493l-13 -48h-441l-74 -275h396l-13 -48h-396l-75 -281h446l-13 -48h-498zM452 765l124 118l60 -28l-131 -90h-53z" />
    <glyph glyph-name="Ecircumflex" unicode="&#xca;" horiz-adv-x="649" 
d="M36 0l188 700h493l-13 -48h-441l-74 -275h396l-13 -48h-396l-75 -281h446l-13 -48h-498zM349 765l132 107h46l74 -107h-50l-56 61l-90 -61h-56z" />
    <glyph glyph-name="Edieresis" unicode="&#xcb;" horiz-adv-x="649" 
d="M36 0l188 700h493l-13 -48h-441l-74 -275h396l-13 -48h-396l-75 -281h446l-13 -48h-498zM533 765l21 76h73l-21 -76h-73zM357 765l21 76h74l-21 -76h-74z" />
    <glyph glyph-name="Igrave" unicode="&#xcc;" horiz-adv-x="274" 
d="M43 0l188 700h52l-188 -700h-52zM216 883l62 -118h-37l-83 90z" />
    <glyph glyph-name="Iacute" unicode="&#xcd;" horiz-adv-x="274" 
d="M43 0l188 700h52l-188 -700h-52zM244 765l124 118l60 -28l-131 -90h-53z" />
    <glyph glyph-name="Icircumflex" unicode="&#xce;" horiz-adv-x="274" 
d="M43 0l188 700h52l-188 -700h-52zM141 765l132 107h46l74 -107h-50l-56 61l-90 -61h-56z" />
    <glyph glyph-name="Idieresis" unicode="&#xcf;" horiz-adv-x="274" 
d="M43 0l188 700h52l-188 -700h-52zM325 765l21 76h73l-21 -76h-73zM149 765l21 76h74l-21 -76h-74z" />
    <glyph glyph-name="Eth" unicode="&#xd0;" horiz-adv-x="801" 
d="M66 0l88 328h-75l13 48h75l87 324h157q178 0 272 -94q77 -77 77 -200q0 -162 -109 -271q-64 -64 -156.5 -99.5t-199.5 -35.5h-229zM131 48h171q190 0 310 120q94 94 94 234q0 108 -65 171q-79 79 -233 79h-115l-74 -276h232l-13 -48h-232z" />
    <glyph glyph-name="Ntilde" unicode="&#xd1;" horiz-adv-x="786" 
d="M36 0l188 700h48l315 -613l165 613h50l-188 -700h-38l-322 626l-168 -626h-50zM422 751l-36 10q22 47 44.5 67.5t51.5 20.5q20 0 62.5 -19t57.5 -19q18 0 30 10t28 36l36 -10q-22 -47 -44.5 -67t-51.5 -20q-20 0 -62.5 19t-57.5 19q-18 0 -30 -10t-28 -37z" />
    <glyph glyph-name="Ograve" unicode="&#xd2;" horiz-adv-x="846" 
d="M398 -13q-131 0 -216.5 86.5t-85.5 214.5q0 108 53.5 206t147 158t202.5 60q131 0 216.5 -86.5t85.5 -214.5q0 -108 -53.5 -206t-147 -158t-202.5 -60zM398 34q96 0 177 54t126.5 140.5t45.5 182.5q0 109 -69 181.5t-179 72.5q-96 0 -177 -54t-126.5 -140.5t-45.5 -182.5
q0 -109 69 -181.5t179 -72.5zM491 893l62 -118h-37l-83 90z" />
    <glyph glyph-name="Oacute" unicode="&#xd3;" horiz-adv-x="846" 
d="M398 -13q-131 0 -216.5 86.5t-85.5 214.5q0 108 53.5 206t147 158t202.5 60q131 0 216.5 -86.5t85.5 -214.5q0 -108 -53.5 -206t-147 -158t-202.5 -60zM398 34q96 0 177 54t126.5 140.5t45.5 182.5q0 109 -69 181.5t-179 72.5q-96 0 -177 -54t-126.5 -140.5t-45.5 -182.5
q0 -109 69 -181.5t179 -72.5zM519 775l124 118l60 -28l-131 -90h-53z" />
    <glyph glyph-name="Ocircumflex" unicode="&#xd4;" horiz-adv-x="846" 
d="M398 -13q-131 0 -216.5 86.5t-85.5 214.5q0 108 53.5 206t147 158t202.5 60q131 0 216.5 -86.5t85.5 -214.5q0 -108 -53.5 -206t-147 -158t-202.5 -60zM398 34q96 0 177 54t126.5 140.5t45.5 182.5q0 109 -69 181.5t-179 72.5q-96 0 -177 -54t-126.5 -140.5t-45.5 -182.5
q0 -109 69 -181.5t179 -72.5zM416 775l132 107h46l74 -107h-50l-56 61l-90 -61h-56z" />
    <glyph glyph-name="Otilde" unicode="&#xd5;" horiz-adv-x="846" 
d="M398 -13q-131 0 -216.5 86.5t-85.5 214.5q0 108 53.5 206t147 158t202.5 60q131 0 216.5 -86.5t85.5 -214.5q0 -108 -53.5 -206t-147 -158t-202.5 -60zM398 34q96 0 177 54t126.5 140.5t45.5 182.5q0 109 -69 181.5t-179 72.5q-96 0 -177 -54t-126.5 -140.5t-45.5 -182.5
q0 -109 69 -181.5t179 -72.5zM442 766l-36 10q22 47 44.5 67.5t51.5 20.5q20 0 62.5 -19t57.5 -19q18 0 30 10t28 36l36 -10q-22 -47 -44.5 -67t-51.5 -20q-20 0 -62.5 19t-57.5 19q-18 0 -30 -10t-28 -37z" />
    <glyph glyph-name="Odieresis" unicode="&#xd6;" horiz-adv-x="846" 
d="M398 -13q-131 0 -216.5 86.5t-85.5 214.5q0 108 53.5 206t147 158t202.5 60q131 0 216.5 -86.5t85.5 -214.5q0 -108 -53.5 -206t-147 -158t-202.5 -60zM398 34q96 0 177 54t126.5 140.5t45.5 182.5q0 109 -69 181.5t-179 72.5q-96 0 -177 -54t-126.5 -140.5t-45.5 -182.5
q0 -109 69 -181.5t179 -72.5zM600 775l21 76h73l-21 -76h-73zM424 775l21 76h74l-21 -76h-74z" />
    <glyph glyph-name="multiply" unicode="&#xd7;" horiz-adv-x="620" 
d="M462 138l-132 182l-231 -184l-27 37l232 183l-134 180l41 31l132 -182l231 184l27 -38l-232 -182l134 -180z" />
    <glyph glyph-name="Oslash" unicode="&#xd8;" horiz-adv-x="846" 
d="M52 -5h-69l157 131q-44 74 -44 162q0 108 53.5 206t147 158t202.5 60q140 0 226 -97l108 90h69l-150 -125q49 -76 49 -169q0 -108 -53.5 -206t-147 -158t-202.5 -60q-145 0 -232 103zM398 34q96 0 177 54t126.5 140.5t45.5 182.5q0 76 -34 136l-509 -425q69 -88 194 -88z
M150 288q0 -74 30 -129l507 424q-69 82 -188 82q-96 0 -177 -54t-126.5 -140.5t-45.5 -182.5z" />
    <glyph glyph-name="Ugrave" unicode="&#xd9;" horiz-adv-x="756" 
d="M348 -11q-122 0 -187 61t-65 159q0 54 14 108l102 383h52l-108 -407q-9 -36 -9 -80q0 -79 52 -128t153 -49q99 0 171 72q65 65 98 186l109 406h52l-112 -417q-35 -130 -111 -206q-88 -88 -211 -88zM445 878l62 -118h-37l-83 90z" />
    <glyph glyph-name="Uacute" unicode="&#xda;" horiz-adv-x="756" 
d="M348 -11q-122 0 -187 61t-65 159q0 54 14 108l102 383h52l-108 -407q-9 -36 -9 -80q0 -79 52 -128t153 -49q99 0 171 72q65 65 98 186l109 406h52l-112 -417q-35 -130 -111 -206q-88 -88 -211 -88zM473 760l124 118l60 -28l-131 -90h-53z" />
    <glyph glyph-name="Ucircumflex" unicode="&#xdb;" horiz-adv-x="756" 
d="M348 -11q-122 0 -187 61t-65 159q0 54 14 108l102 383h52l-108 -407q-9 -36 -9 -80q0 -79 52 -128t153 -49q99 0 171 72q65 65 98 186l109 406h52l-112 -417q-35 -130 -111 -206q-88 -88 -211 -88zM370 760l132 107h46l74 -107h-50l-56 61l-90 -61h-56z" />
    <glyph glyph-name="Udieresis" unicode="&#xdc;" horiz-adv-x="756" 
d="M348 -11q-122 0 -187 61t-65 159q0 54 14 108l102 383h52l-108 -407q-9 -36 -9 -80q0 -79 52 -128t153 -49q99 0 171 72q65 65 98 186l109 406h52l-112 -417q-35 -130 -111 -206q-88 -88 -211 -88zM555 760l21 76h73l-21 -76h-73zM379 760l21 76h74l-21 -76h-74z" />
    <glyph glyph-name="Yacute" unicode="&#xdd;" horiz-adv-x="668" 
d="M234 0l76 284l-183 416h57l161 -376l364 376h70l-421 -429l-72 -271h-52zM425 760l124 118l60 -28l-131 -90h-53z" />
    <glyph glyph-name="Thorn" unicode="&#xde;" horiz-adv-x="668" 
d="M36 0l188 700h51l-33 -127h166q130 0 193 -63q48 -48 48 -125q0 -118 -93 -184t-253 -66h-178l-37 -135h-52zM137 182h168q141 0 216.5 52.5t75.5 148.5q0 57 -36 93q-49 49 -154 49h-178z" />
    <glyph glyph-name="germandbls" unicode="&#xdf;" horiz-adv-x="620" 
d="M220 -2l12 44q130 1 195.5 46.5t65.5 113.5q0 107 -181 140l12 45q222 52 222 187q0 52 -37 84.5t-101 32.5q-73 0 -125.5 -54.5t-78.5 -151.5l-130 -485h-49l134 500q29 109 87 167q70 70 166 70q81 0 134 -45.5t53 -115.5q0 -152 -212 -211q159 -42 159 -164
q0 -89 -88 -146.5t-238 -56.5z" />
    <glyph glyph-name="agrave" unicode="&#xe0;" horiz-adv-x="571" 
d="M190 -12q-69 0 -118 37.5t-49 105.5q0 84 64 134.5t166 50.5q90 0 196 -29l4 14q7 26 7 51q0 58 -39.5 89t-114.5 31q-70 0 -148 -27l-9 44q81 29 161 29q93 0 145.5 -42.5t52.5 -116.5q0 -29 -10 -67l-78 -292h-48l23 88q-84 -100 -205 -100zM199 33q75 0 141.5 47.5
t86.5 122.5l12 45q-96 24 -193 24q-76 0 -123.5 -37.5t-47.5 -97.5q0 -47 33.5 -75.5t90.5 -28.5zM328 595l-79 103l62 30l52 -133h-35z" />
    <glyph glyph-name="aacute" unicode="&#xe1;" horiz-adv-x="571" 
d="M190 -12q-69 0 -118 37.5t-49 105.5q0 84 64 134.5t166 50.5q90 0 196 -29l4 14q7 26 7 51q0 58 -39.5 89t-114.5 31q-70 0 -148 -27l-9 44q81 29 161 29q93 0 145.5 -42.5t52.5 -116.5q0 -29 -10 -67l-78 -292h-48l23 88q-84 -100 -205 -100zM199 33q75 0 141.5 47.5
t86.5 122.5l12 45q-96 24 -193 24q-76 0 -123.5 -37.5t-47.5 -97.5q0 -47 33.5 -75.5t90.5 -28.5zM327 595l124 133l62 -30l-135 -103h-51z" />
    <glyph glyph-name="acircumflex" unicode="&#xe2;" horiz-adv-x="571" 
d="M190 -12q-69 0 -118 37.5t-49 105.5q0 84 64 134.5t166 50.5q90 0 196 -29l4 14q7 26 7 51q0 58 -39.5 89t-114.5 31q-70 0 -148 -27l-9 44q81 29 161 29q93 0 145.5 -42.5t52.5 -116.5q0 -29 -10 -67l-78 -292h-48l23 88q-84 -100 -205 -100zM199 33q75 0 141.5 47.5
t86.5 122.5l12 45q-96 24 -193 24q-76 0 -123.5 -37.5t-47.5 -97.5q0 -47 33.5 -75.5t90.5 -28.5zM232 595l133 122h40l67 -122h-44l-52 68l-96 -68h-48z" />
    <glyph glyph-name="atilde" unicode="&#xe3;" horiz-adv-x="571" 
d="M190 -12q-69 0 -118 37.5t-49 105.5q0 84 64 134.5t166 50.5q90 0 196 -29l4 14q7 26 7 51q0 58 -39.5 89t-114.5 31q-70 0 -148 -27l-9 44q81 29 161 29q93 0 145.5 -42.5t52.5 -116.5q0 -29 -10 -67l-78 -292h-48l23 88q-84 -100 -205 -100zM199 33q75 0 141.5 47.5
t86.5 122.5l12 45q-96 24 -193 24q-76 0 -123.5 -37.5t-47.5 -97.5q0 -47 33.5 -75.5t90.5 -28.5zM247 586l-35 9q23 53 45.5 73t53.5 20q19 0 61 -20.5t59 -20.5q18 0 30.5 10.5t28.5 39.5l35 -9q-23 -53 -45.5 -73t-53.5 -20q-20 0 -62 20.5t-58 20.5q-18 0 -30.5 -10.5
t-28.5 -39.5z" />
    <glyph glyph-name="adieresis" unicode="&#xe4;" horiz-adv-x="571" 
d="M190 -12q-69 0 -118 37.5t-49 105.5q0 84 64 134.5t166 50.5q90 0 196 -29l4 14q7 26 7 51q0 58 -39.5 89t-114.5 31q-70 0 -148 -27l-9 44q81 29 161 29q93 0 145.5 -42.5t52.5 -116.5q0 -29 -10 -67l-78 -292h-48l23 88q-84 -100 -205 -100zM199 33q75 0 141.5 47.5
t86.5 122.5l12 45q-96 24 -193 24q-76 0 -123.5 -37.5t-47.5 -97.5q0 -47 33.5 -75.5t90.5 -28.5zM403 595l22 80h69l-22 -80h-69zM240 595l22 80h69l-22 -80h-69z" />
    <glyph glyph-name="aring" unicode="&#xe5;" horiz-adv-x="571" 
d="M190 -12q-69 0 -118 37.5t-49 105.5q0 84 64 134.5t166 50.5q90 0 196 -29l4 14q7 26 7 51q0 58 -39.5 89t-114.5 31q-70 0 -148 -27l-9 44q81 29 161 29q93 0 145.5 -42.5t52.5 -116.5q0 -29 -10 -67l-78 -292h-48l23 88q-84 -100 -205 -100zM199 33q75 0 141.5 47.5
t86.5 122.5l12 45q-96 24 -193 24q-76 0 -123.5 -37.5t-47.5 -97.5q0 -47 33.5 -75.5t90.5 -28.5zM374 593q-44 0 -72 26.5t-28 65.5q0 44 36 76t82 32q44 0 72 -26.5t28 -65.5q0 -44 -36 -76t-82 -32zM375 625q33 0 57 22t24 53q0 26 -17.5 43.5t-47.5 17.5q-33 0 -57 -22
t-24 -53q0 -26 17.5 -43.5t47.5 -17.5z" />
    <glyph glyph-name="ae" unicode="&#xe6;" horiz-adv-x="965" 
d="M455 113q-120 -125 -255 -125q-77 0 -127 39t-50 109q0 82 66 131t168 49q97 0 192 -29l4 14q7 26 7 51q0 58 -39.5 89t-114.5 31q-70 0 -148 -27l-9 44q81 29 161 29t130.5 -32t63.5 -89q42 57 100.5 91t124.5 34q92 0 142.5 -56t50.5 -139q0 -49 -14 -89h-419
q-2 -22 -2 -34q0 -77 47 -123.5t122 -46.5q91 0 174 68l29 -35q-95 -79 -200 -79q-75 0 -127.5 33.5t-76.5 91.5zM498 282h370q4 18 4 42q0 66 -36.5 109.5t-107.5 43.5q-82 0 -144.5 -56t-85.5 -139zM441 249q-81 23 -191 23q-76 0 -125.5 -37t-49.5 -93q0 -50 34 -79.5
t95 -29.5q123 0 238 125q-4 20 -4 48q0 22 3 43z" />
    <glyph glyph-name="ccedilla" unicode="&#xe7;" horiz-adv-x="563" 
d="M166 -148l-48 26l108 115q-75 14 -125.5 71t-50.5 144q0 126 89.5 220t210.5 94q73 0 123.5 -35t76.5 -88l-41 -23q-57 100 -162 100q-97 0 -170.5 -80t-73.5 -185q0 -82 50.5 -129.5t121.5 -47.5q87 0 165 73l33 -32q-90 -87 -201 -87h-3z" />
    <glyph glyph-name="egrave" unicode="&#xe8;" horiz-adv-x="583" 
d="M524 238h-419q-2 -12 -2 -34q0 -77 47 -123.5t122 -46.5q91 0 174 68l29 -35q-95 -79 -203 -79q-98 0 -160 60t-62 154q0 123 87 221.5t208 98.5q92 0 142.5 -56t50.5 -139q0 -49 -14 -89zM344 477q-83 0 -145 -56t-85 -139h370q4 18 4 42q0 66 -36.5 109.5t-107.5 43.5z
M357 595l-79 103l62 30l52 -133h-35z" />
    <glyph glyph-name="eacute" unicode="&#xe9;" horiz-adv-x="583" 
d="M524 238h-419q-2 -12 -2 -34q0 -77 47 -123.5t122 -46.5q91 0 174 68l29 -35q-95 -79 -203 -79q-98 0 -160 60t-62 154q0 123 87 221.5t208 98.5q92 0 142.5 -56t50.5 -139q0 -49 -14 -89zM344 477q-83 0 -145 -56t-85 -139h370q4 18 4 42q0 66 -36.5 109.5t-107.5 43.5z
M356 595l124 133l62 -30l-135 -103h-51z" />
    <glyph glyph-name="ecircumflex" unicode="&#xea;" horiz-adv-x="583" 
d="M524 238h-419q-2 -12 -2 -34q0 -77 47 -123.5t122 -46.5q91 0 174 68l29 -35q-95 -79 -203 -79q-98 0 -160 60t-62 154q0 123 87 221.5t208 98.5q92 0 142.5 -56t50.5 -139q0 -49 -14 -89zM344 477q-83 0 -145 -56t-85 -139h370q4 18 4 42q0 66 -36.5 109.5t-107.5 43.5z
M260 595l133 122h40l67 -122h-44l-52 68l-96 -68h-48z" />
    <glyph glyph-name="edieresis" unicode="&#xeb;" horiz-adv-x="583" 
d="M524 238h-419q-2 -12 -2 -34q0 -77 47 -123.5t122 -46.5q91 0 174 68l29 -35q-95 -79 -203 -79q-98 0 -160 60t-62 154q0 123 87 221.5t208 98.5q92 0 142.5 -56t50.5 -139q0 -49 -14 -89zM344 477q-83 0 -145 -56t-85 -139h370q4 18 4 42q0 66 -36.5 109.5t-107.5 43.5z
M432 595l22 80h69l-22 -80h-69zM269 595l22 80h69l-22 -80h-69z" />
    <glyph glyph-name="igrave" unicode="&#xec;" horiz-adv-x="250" 
d="M32 0l137 510h49l-137 -510h-49zM188 595l-79 103l62 30l52 -133h-35z" />
    <glyph glyph-name="iacute" unicode="&#xed;" horiz-adv-x="250" 
d="M32 0l137 510h49l-137 -510h-49zM187 595l124 133l62 -30l-135 -103h-51z" />
    <glyph glyph-name="icircumflex" unicode="&#xee;" horiz-adv-x="250" 
d="M32 0l137 510h49l-137 -510h-49zM91 595l133 122h40l67 -122h-44l-52 68l-96 -68h-48z" />
    <glyph glyph-name="idieresis" unicode="&#xef;" horiz-adv-x="250" 
d="M32 0l137 510h49l-137 -510h-49zM263 595l22 80h69l-22 -80h-69zM100 595l22 80h69l-22 -80h-69z" />
    <glyph glyph-name="eth" unicode="&#xf0;" horiz-adv-x="622" 
d="M550 700l-103 -47q129 -196 129 -348q0 -139 -91 -230q-87 -87 -209 -87q-102 0 -164 65.5t-62 164.5q0 119 83.5 205.5t197.5 86.5q121 0 194 -110q-31 102 -122 233l-140 -63l-20 39l134 61q-23 30 -48 60h64l29 -40l108 49zM281 34q97 0 169.5 73t72.5 173
q0 79 -53 132.5t-138 53.5q-96 0 -162.5 -73t-66.5 -172q0 -84 48 -135.5t130 -51.5z" />
    <glyph glyph-name="ntilde" unicode="&#xf1;" horiz-adv-x="611" 
d="M25 0l136 510h49l-25 -95q89 107 193 107q76 0 121.5 -44.5t45.5 -117.5q0 -28 -11 -72l-76 -288h-49l78 292q8 30 8 63q0 57 -35 90t-96 33q-67 0 -129 -54t-84 -136l-77 -288h-49zM286 586l-35 9q23 53 45.5 73t53.5 20q20 0 62 -20.5t58 -20.5q18 0 30.5 10.5
t28.5 39.5l35 -9q-23 -53 -45.5 -73t-53.5 -20q-19 0 -61 20.5t-59 20.5q-18 0 -30.5 -10.5t-28.5 -39.5z" />
    <glyph glyph-name="ograve" unicode="&#xf2;" horiz-adv-x="633" 
d="M278 -12q-101 0 -164 63.5t-63 162.5q0 122 91 215t212 93q101 0 164 -63.5t63 -162.5q0 -124 -92 -216t-211 -92zM283 34q95 0 170 78t75 182q0 85 -49 133.5t-130 48.5q-97 0 -171 -79t-74 -181q0 -85 49 -133.5t130 -48.5zM373 595l-79 103l62 30l52 -133h-35z" />
    <glyph glyph-name="oacute" unicode="&#xf3;" horiz-adv-x="633" 
d="M278 -12q-101 0 -164 63.5t-63 162.5q0 122 91 215t212 93q101 0 164 -63.5t63 -162.5q0 -124 -92 -216t-211 -92zM283 34q95 0 170 78t75 182q0 85 -49 133.5t-130 48.5q-97 0 -171 -79t-74 -181q0 -85 49 -133.5t130 -48.5zM372 595l124 133l62 -30l-135 -103h-51z" />
    <glyph glyph-name="ocircumflex" unicode="&#xf4;" horiz-adv-x="633" 
d="M278 -12q-101 0 -164 63.5t-63 162.5q0 122 91 215t212 93q101 0 164 -63.5t63 -162.5q0 -124 -92 -216t-211 -92zM283 34q95 0 170 78t75 182q0 85 -49 133.5t-130 48.5q-97 0 -171 -79t-74 -181q0 -85 49 -133.5t130 -48.5zM276 595l133 122h40l67 -122h-44l-52 68
l-96 -68h-48z" />
    <glyph glyph-name="otilde" unicode="&#xf5;" horiz-adv-x="633" 
d="M278 -12q-101 0 -164 63.5t-63 162.5q0 122 91 215t212 93q101 0 164 -63.5t63 -162.5q0 -124 -92 -216t-211 -92zM283 34q95 0 170 78t75 182q0 85 -49 133.5t-130 48.5q-97 0 -171 -79t-74 -181q0 -85 49 -133.5t130 -48.5zM292 586l-35 9q23 53 45.5 73t53.5 20
q20 0 62 -20.5t58 -20.5q18 0 30.5 10.5t28.5 39.5l35 -9q-23 -53 -45.5 -73t-53.5 -20q-19 0 -61 20.5t-59 20.5q-18 0 -30.5 -10.5t-28.5 -39.5z" />
    <glyph glyph-name="odieresis" unicode="&#xf6;" horiz-adv-x="633" 
d="M278 -12q-101 0 -164 63.5t-63 162.5q0 122 91 215t212 93q101 0 164 -63.5t63 -162.5q0 -124 -92 -216t-211 -92zM283 34q95 0 170 78t75 182q0 85 -49 133.5t-130 48.5q-97 0 -171 -79t-74 -181q0 -85 49 -133.5t130 -48.5zM448 595l22 80h69l-22 -80h-69zM285 595
l22 80h69l-22 -80h-69z" />
    <glyph glyph-name="divide" unicode="&#xf7;" horiz-adv-x="620" 
d="M336 500l24 89h80l-24 -89h-80zM572 328h-484l13 48h484zM233 115l24 89h80l-24 -89h-80z" />
    <glyph glyph-name="oslash" unicode="&#xf8;" horiz-adv-x="633" 
d="M32 -5h-67l118 96q-32 53 -32 123q0 122 91 215t212 93q105 0 169 -70l79 65h67l-120 -98q32 -53 32 -123q0 -124 -92 -216t-211 -92q-106 0 -170 69zM283 34q95 0 170 78t75 182q0 51 -19 92l-363 -297q47 -55 137 -55zM104 216q0 -51 19 -92l362 297q-47 55 -136 55
q-97 0 -171 -79t-74 -181z" />
    <glyph glyph-name="ugrave" unicode="&#xf9;" horiz-adv-x="609" 
d="M231 -12q-76 0 -121.5 44.5t-45.5 117.5q0 28 11 72l76 288h49l-78 -292q-8 -30 -8 -63q0 -57 35 -90t96 -33q67 0 129 54t84 136l77 288h49l-136 -510h-49l25 95q-89 -107 -193 -107zM355 595l-79 103l62 30l52 -133h-35z" />
    <glyph glyph-name="uacute" unicode="&#xfa;" horiz-adv-x="609" 
d="M231 -12q-76 0 -121.5 44.5t-45.5 117.5q0 28 11 72l76 288h49l-78 -292q-8 -30 -8 -63q0 -57 35 -90t96 -33q67 0 129 54t84 136l77 288h49l-136 -510h-49l25 95q-89 -107 -193 -107zM354 595l124 133l62 -30l-135 -103h-51z" />
    <glyph glyph-name="ucircumflex" unicode="&#xfb;" horiz-adv-x="609" 
d="M231 -12q-76 0 -121.5 44.5t-45.5 117.5q0 28 11 72l76 288h49l-78 -292q-8 -30 -8 -63q0 -57 35 -90t96 -33q67 0 129 54t84 136l77 288h49l-136 -510h-49l25 95q-89 -107 -193 -107zM259 595l133 122h40l67 -122h-44l-52 68l-96 -68h-48z" />
    <glyph glyph-name="udieresis" unicode="&#xfc;" horiz-adv-x="609" 
d="M231 -12q-76 0 -121.5 44.5t-45.5 117.5q0 28 11 72l76 288h49l-78 -292q-8 -30 -8 -63q0 -57 35 -90t96 -33q67 0 129 54t84 136l77 288h49l-136 -510h-49l25 95q-89 -107 -193 -107zM430 595l22 80h69l-22 -80h-69zM267 595l22 80h69l-22 -80h-69z" />
    <glyph glyph-name="yacute" unicode="&#xfd;" horiz-adv-x="568" 
d="M20 -163q-58 0 -108 35l27 40q36 -29 87 -29q40 0 78.5 27.5t84.5 92.5l-104 507h52l89 -456l307 456h59l-363 -528q-54 -78 -103.5 -111.5t-105.5 -33.5zM317 595l124 133l62 -30l-135 -103h-51z" />
    <glyph glyph-name="thorn" unicode="&#xfe;" horiz-adv-x="654" 
d="M-18 -160l239 890h49l-87 -320q94 112 212 112q89 0 147 -60.5t58 -154.5q0 -134 -86 -227t-202 -93q-79 0 -130 40.5t-73 102.5l-78 -290h-49zM310 33q101 0 169 80t68 188q0 78 -44 126.5t-114 48.5q-96 0 -175.5 -82t-79.5 -183q0 -75 49.5 -126.5t126.5 -51.5z" />
    <glyph glyph-name="ydieresis" unicode="&#xff;" horiz-adv-x="568" 
d="M20 -163q-58 0 -108 35l27 40q36 -29 87 -29q40 0 78.5 27.5t84.5 92.5l-104 507h52l89 -456l307 456h59l-363 -528q-54 -78 -103.5 -111.5t-105.5 -33.5zM393 595l22 80h69l-22 -80h-69zM230 595l22 80h69l-22 -80h-69z" />
    <glyph glyph-name="Amacron" unicode="&#x100;" horiz-adv-x="759" 
d="M-34 0l515 705h50l137 -705h-53l-36 196h-413l-142 -196h-58zM200 243h369l-75 405zM379 801l13 49h310l-13 -49h-310z" />
    <glyph glyph-name="amacron" unicode="&#x101;" horiz-adv-x="571" 
d="M190 -12q-69 0 -118 37.5t-49 105.5q0 84 64 134.5t166 50.5q90 0 196 -29l4 14q7 26 7 51q0 58 -39.5 89t-114.5 31q-70 0 -148 -27l-9 44q81 29 161 29q93 0 145.5 -42.5t52.5 -116.5q0 -29 -10 -67l-78 -292h-48l23 88q-84 -100 -205 -100zM199 33q75 0 141.5 47.5
t86.5 122.5l12 45q-96 24 -193 24q-76 0 -123.5 -37.5t-47.5 -97.5q0 -47 33.5 -75.5t90.5 -28.5zM212 621l13 47h304l-13 -47h-304z" />
    <glyph glyph-name="Abreve" unicode="&#x102;" horiz-adv-x="759" 
d="M-34 0l515 705h50l137 -705h-53l-36 196h-413l-142 -196h-58zM200 243h369l-75 405zM530 773q-56 0 -85.5 26.5t-20.5 73.5h42q1 -26 18 -39t57 -13q71 0 103 52h46q-16 -47 -60 -73.5t-100 -26.5z" />
    <glyph glyph-name="abreve" unicode="&#x103;" horiz-adv-x="571" 
d="M190 -12q-69 0 -118 37.5t-49 105.5q0 84 64 134.5t166 50.5q90 0 196 -29l4 14q7 26 7 51q0 58 -39.5 89t-114.5 31q-70 0 -148 -27l-9 44q81 29 161 29q93 0 145.5 -42.5t52.5 -116.5q0 -29 -10 -67l-78 -292h-48l23 88q-84 -100 -205 -100zM199 33q75 0 141.5 47.5
t86.5 122.5l12 45q-96 24 -193 24q-76 0 -123.5 -37.5t-47.5 -97.5q0 -47 33.5 -75.5t90.5 -28.5zM360 593q-58 0 -86 30t-18 82h38q-1 -32 16.5 -48t58.5 -16q72 0 110 64h43q-18 -52 -62 -82t-100 -30z" />
    <glyph glyph-name="Aogonek" unicode="&#x104;" horiz-adv-x="759" 
d="M526 -98q0 50 87 106l-34 188h-413l-142 -196h-58l515 705h50l137 -705h-11q-80 -52 -80 -90q0 -30 66 -38l-9 -36q-108 7 -108 66zM200 243h369l-75 405z" />
    <glyph glyph-name="aogonek" unicode="&#x105;" horiz-adv-x="571" 
d="M285 -98q0 51 89 107l21 79q-84 -100 -205 -100q-69 0 -118 37.5t-49 105.5q0 84 64 134.5t166 50.5q90 0 196 -29l4 14q7 26 7 51q0 58 -39.5 89t-114.5 31q-70 0 -148 -27l-9 44q81 29 161 29q93 0 145.5 -42.5t52.5 -116.5q0 -29 -10 -67l-78 -292h-4q-80 -52 -80 -90
q0 -30 66 -38l-9 -36q-108 7 -108 66zM199 33q75 0 141.5 47.5t86.5 122.5l12 45q-96 24 -193 24q-76 0 -123.5 -37.5t-47.5 -97.5q0 -47 33.5 -75.5t90.5 -28.5z" />
    <glyph glyph-name="Cacute" unicode="&#x106;" horiz-adv-x="738" 
d="M378 -13q-120 0 -203 77.5t-83 206.5q0 112 55.5 214t153 164.5t209.5 62.5q92 0 157.5 -41.5t99.5 -109.5l-45 -24q-36 63 -86.5 95.5t-128.5 32.5q-148 0 -254.5 -120t-106.5 -272q0 -109 66.5 -173.5t170.5 -64.5q74 0 129.5 26.5t107.5 78.5l35 -32
q-116 -121 -277 -121zM497 775l124 118l60 -28l-131 -90h-53z" />
    <glyph glyph-name="cacute" unicode="&#x107;" horiz-adv-x="563" 
d="M272 -12q-89 0 -155.5 60t-66.5 160q0 126 89.5 220t210.5 94q73 0 123.5 -35t76.5 -88l-41 -23q-57 100 -162 100q-97 0 -170.5 -80t-73.5 -185q0 -82 50.5 -129.5t121.5 -47.5q87 0 165 73l33 -32q-90 -87 -201 -87zM345 595l124 133l62 -30l-135 -103h-51z" />
    <glyph glyph-name="Cdotaccent" unicode="&#x10a;" horiz-adv-x="738" 
d="M378 -13q-120 0 -203 77.5t-83 206.5q0 112 55.5 214t153 164.5t209.5 62.5q92 0 157.5 -41.5t99.5 -109.5l-45 -24q-36 63 -86.5 95.5t-128.5 32.5q-148 0 -254.5 -120t-106.5 -272q0 -109 66.5 -173.5t170.5 -64.5q74 0 129.5 26.5t107.5 78.5l35 -32
q-116 -121 -277 -121zM489 775l21 76h76l-21 -76h-76z" />
    <glyph glyph-name="cdotaccent" unicode="&#x10b;" horiz-adv-x="563" 
d="M272 -12q-89 0 -155.5 60t-66.5 160q0 126 89.5 220t210.5 94q73 0 123.5 -35t76.5 -88l-41 -23q-57 100 -162 100q-97 0 -170.5 -80t-73.5 -185q0 -82 50.5 -129.5t121.5 -47.5q87 0 165 73l33 -32q-90 -87 -201 -87zM341 593l23 85h66l-23 -85h-66z" />
    <glyph glyph-name="Ccaron" unicode="&#x10c;" horiz-adv-x="738" 
d="M378 -13q-120 0 -203 77.5t-83 206.5q0 112 55.5 214t153 164.5t209.5 62.5q92 0 157.5 -41.5t99.5 -109.5l-45 -24q-36 63 -86.5 95.5t-128.5 32.5q-148 0 -254.5 -120t-106.5 -272q0 -109 66.5 -173.5t170.5 -64.5q74 0 129.5 26.5t107.5 78.5l35 -32
q-116 -121 -277 -121zM689 882l-132 -107h-46l-74 107h50l56 -61l90 61h56z" />
    <glyph glyph-name="ccaron" unicode="&#x10d;" horiz-adv-x="563" 
d="M272 -12q-89 0 -155.5 60t-66.5 160q0 126 89.5 220t210.5 94q73 0 123.5 -35t76.5 -88l-41 -23q-57 100 -162 100q-97 0 -170.5 -80t-73.5 -185q0 -82 50.5 -129.5t121.5 -47.5q87 0 165 73l33 -32q-90 -87 -201 -87zM510 717l-133 -122h-40l-67 122h44l52 -68l96 68h48
z" />
    <glyph glyph-name="Dcaron" unicode="&#x10e;" horiz-adv-x="771" 
d="M36 0l188 700h157q178 0 272 -94q77 -77 77 -200q0 -162 -109 -271q-64 -64 -156.5 -99.5t-199.5 -35.5h-229zM101 48h171q190 0 310 120q94 94 94 234q0 108 -65 171q-79 79 -233 79h-115zM646 872l-132 -107h-46l-74 107h50l56 -61l90 61h56z" />
    <glyph glyph-name="dcaron" unicode="&#x10f;" horiz-adv-x="654" 
d="M259 -13q-89 0 -147 60.5t-58 154.5q0 134 86 227t202 93q79 0 130 -40.5t73 -102.5l94 351h49l-195 -730h-49l26 99q-94 -112 -211 -112zM265 33q96 0 175.5 82t79.5 183q0 75 -49.5 126.5t-126.5 51.5q-101 0 -169 -80t-68 -188q0 -78 44 -126.5t114 -48.5zM720 581
l56 149h61v-3l-88 -146h-29z" />
    <glyph glyph-name="Dcroat" unicode="&#x110;" horiz-adv-x="801" 
d="M66 0l88 328h-75l13 48h75l87 324h157q178 0 272 -94q77 -77 77 -200q0 -162 -109 -271q-64 -64 -156.5 -99.5t-199.5 -35.5h-229zM131 48h171q190 0 310 120q94 94 94 234q0 108 -65 171q-79 79 -233 79h-115l-74 -276h232l-13 -48h-232z" />
    <glyph glyph-name="dcroat" unicode="&#x111;" horiz-adv-x="654" 
d="M424 618l12 45h185l18 67h49l-18 -67h70l-12 -45h-70l-165 -618h-49l26 99q-94 -112 -211 -112q-89 0 -147 60.5t-58 154.5q0 134 86 227t202 93q79 0 130 -40.5t73 -102.5l64 239h-185zM265 33q96 0 175.5 82t79.5 183q0 75 -49.5 126.5t-126.5 51.5q-101 0 -169 -80
t-68 -188q0 -78 44 -126.5t114 -48.5z" />
    <glyph glyph-name="Emacron" unicode="&#x112;" horiz-adv-x="649" 
d="M36 0l188 700h493l-13 -48h-441l-74 -275h396l-13 -48h-396l-75 -281h446l-13 -48h-498zM335 791l13 49h310l-13 -49h-310z" />
    <glyph glyph-name="emacron" unicode="&#x113;" horiz-adv-x="583" 
d="M524 238h-419q-2 -12 -2 -34q0 -77 47 -123.5t122 -46.5q91 0 174 68l29 -35q-95 -79 -203 -79q-98 0 -160 60t-62 154q0 123 87 221.5t208 98.5q92 0 142.5 -56t50.5 -139q0 -49 -14 -89zM344 477q-83 0 -145 -56t-85 -139h370q4 18 4 42q0 66 -36.5 109.5t-107.5 43.5z
M240 621l13 47h304l-13 -47h-304z" />
    <glyph glyph-name="Ebreve" unicode="&#x114;" horiz-adv-x="649" 
d="M36 0l188 700h493l-13 -48h-441l-74 -275h396l-13 -48h-396l-75 -281h446l-13 -48h-498zM485 763q-56 0 -85.5 26.5t-20.5 73.5h42q1 -26 18 -39t57 -13q70 0 103 52h46q-16 -47 -60 -73.5t-100 -26.5z" />
    <glyph glyph-name="ebreve" unicode="&#x115;" horiz-adv-x="583" 
d="M524 238h-419q-2 -12 -2 -34q0 -77 47 -123.5t122 -46.5q91 0 174 68l29 -35q-95 -79 -203 -79q-98 0 -160 60t-62 154q0 123 87 221.5t208 98.5q92 0 142.5 -56t50.5 -139q0 -49 -14 -89zM344 477q-83 0 -145 -56t-85 -139h370q4 18 4 42q0 66 -36.5 109.5t-107.5 43.5z
M388 593q-58 0 -86 30t-18 82h38q-1 -32 16.5 -48t58.5 -16q72 0 110 64h43q-18 -52 -62 -82t-100 -30z" />
    <glyph glyph-name="Edotaccent" unicode="&#x116;" horiz-adv-x="649" 
d="M36 0l188 700h493l-13 -48h-441l-74 -275h396l-13 -48h-396l-75 -281h446l-13 -48h-498zM444 765l21 76h76l-21 -76h-76z" />
    <glyph glyph-name="edotaccent" unicode="&#x117;" horiz-adv-x="583" 
d="M524 238h-419q-2 -12 -2 -34q0 -77 47 -123.5t122 -46.5q91 0 174 68l29 -35q-95 -79 -203 -79q-98 0 -160 60t-62 154q0 123 87 221.5t208 98.5q92 0 142.5 -56t50.5 -139q0 -49 -14 -89zM344 477q-83 0 -145 -56t-85 -139h370q4 18 4 42q0 66 -36.5 109.5t-107.5 43.5z
M352 593l23 85h66l-23 -85h-66z" />
    <glyph glyph-name="Eogonek" unicode="&#x118;" horiz-adv-x="649" 
d="M36 0l188 700h493l-13 -48h-441l-74 -275h396l-13 -48h-396l-75 -281h446l-13 -48h-2q-80 -52 -80 -90q0 -30 66 -38l-9 -36q-108 7 -108 66q0 47 75 98h-440z" />
    <glyph glyph-name="eogonek" unicode="&#x119;" horiz-adv-x="583" 
d="M272 -12q-98 0 -160 60t-62 154q0 123 87 221.5t208 98.5q92 0 142.5 -56t50.5 -139q0 -49 -14 -89h-419q-2 -12 -2 -34q0 -77 47 -123.5t122 -46.5q91 0 174 68l29 -35l-87 -66q-42 -32 -59.5 -52t-17.5 -39q0 -30 66 -38l-9 -36q-108 7 -108 66q0 45 64 90
q-32 -4 -52 -4zM344 477q-83 0 -145 -56t-85 -139h370q4 18 4 42q0 66 -36.5 109.5t-107.5 43.5z" />
    <glyph glyph-name="Ecaron" unicode="&#x11a;" horiz-adv-x="649" 
d="M36 0l188 700h493l-13 -48h-441l-74 -275h396l-13 -48h-396l-75 -281h446l-13 -48h-498zM644 872l-132 -107h-46l-74 107h50l56 -61l90 61h56z" />
    <glyph glyph-name="ecaron" unicode="&#x11b;" horiz-adv-x="583" 
d="M524 238h-419q-2 -12 -2 -34q0 -77 47 -123.5t122 -46.5q91 0 174 68l29 -35q-95 -79 -203 -79q-98 0 -160 60t-62 154q0 123 87 221.5t208 98.5q92 0 142.5 -56t50.5 -139q0 -49 -14 -89zM344 477q-83 0 -145 -56t-85 -139h370q4 18 4 42q0 66 -36.5 109.5t-107.5 43.5z
M521 717l-133 -122h-40l-67 122h44l52 -68l96 68h48z" />
    <glyph glyph-name="Gbreve" unicode="&#x11e;" horiz-adv-x="786" 
d="M396 -13q-132 0 -217 81t-85 214q0 108 55 206.5t154.5 161t217.5 62.5q173 0 256 -130l-41 -27q-35 53 -85 81.5t-135 28.5q-102 0 -188 -56t-133 -143t-47 -182q0 -116 69 -183t182 -67q116 0 202 57l64 224h-233l13 48h284l-86 -301q-115 -75 -247 -75zM543 773
q-56 0 -85.5 26.5t-20.5 73.5h42q1 -26 18 -39t57 -13q70 0 103 52h46q-16 -47 -60 -73.5t-100 -26.5z" />
    <glyph glyph-name="gbreve" unicode="&#x11f;" horiz-adv-x="654" 
d="M236 -162q-67 0 -131 25.5t-110 69.5l36 36q90 -85 207 -85q100 0 157 57q45 45 70 134l18 64q-95 -101 -210 -101q-86 0 -149.5 54.5t-63.5 143.5q0 123 88 204.5t201 81.5q140 0 199 -136l33 124h49l-119 -447q-27 -99 -80 -152q-73 -73 -195 -73zM282 84
q95 0 169.5 70.5t74.5 157.5q0 65 -49.5 114t-129.5 49q-93 0 -163.5 -67t-70.5 -169q0 -73 50 -114t119 -41zM418 593q-58 0 -86 30t-18 82h38q-1 -32 16.5 -48t58.5 -16q72 0 110 64h43q-18 -52 -62 -82t-100 -30z" />
    <glyph glyph-name="Gdotaccent" unicode="&#x120;" horiz-adv-x="786" 
d="M396 -13q-132 0 -217 81t-85 214q0 108 55 206.5t154.5 161t217.5 62.5q173 0 256 -130l-41 -27q-35 53 -85 81.5t-135 28.5q-102 0 -188 -56t-133 -143t-47 -182q0 -116 69 -183t182 -67q116 0 202 57l64 224h-233l13 48h284l-86 -301q-115 -75 -247 -75zM502 775l21 76
h76l-21 -76h-76z" />
    <glyph glyph-name="gdotaccent" unicode="&#x121;" horiz-adv-x="654" 
d="M236 -162q-67 0 -131 25.5t-110 69.5l36 36q90 -85 207 -85q100 0 157 57q45 45 70 134l18 64q-95 -101 -210 -101q-86 0 -149.5 54.5t-63.5 143.5q0 123 88 204.5t201 81.5q140 0 199 -136l33 124h49l-119 -447q-27 -99 -80 -152q-73 -73 -195 -73zM282 84
q95 0 169.5 70.5t74.5 157.5q0 65 -49.5 114t-129.5 49q-93 0 -163.5 -67t-70.5 -169q0 -73 50 -114t119 -41zM382 593l23 85h66l-23 -85h-66z" />
    <glyph glyph-name="Gcommaaccent" unicode="&#x122;" horiz-adv-x="786" 
d="M396 -13q-132 0 -217 81t-85 214q0 108 55 206.5t154.5 161t217.5 62.5q173 0 256 -130l-41 -27q-35 53 -85 81.5t-135 28.5q-102 0 -188 -56t-133 -143t-47 -182q0 -116 69 -183t182 -67q116 0 202 57l64 224h-233l13 48h284l-86 -301q-115 -75 -247 -75zM248 -225v24
q32 6 48 18.5t23 37.5h-32l19 71h72l-17 -62q-12 -44 -38 -64t-75 -25z" />
    <glyph glyph-name="gcommaaccent" unicode="&#x123;" horiz-adv-x="654" 
d="M236 -162q-67 0 -131 25.5t-110 69.5l36 36q90 -85 207 -85q100 0 157 57q45 45 70 134l18 64q-95 -101 -210 -101q-86 0 -149.5 54.5t-63.5 143.5q0 123 88 204.5t201 81.5q140 0 199 -136l33 124h49l-119 -447q-27 -99 -80 -152q-73 -73 -195 -73zM282 84
q95 0 169.5 70.5t74.5 157.5q0 65 -49.5 114t-129.5 49q-93 0 -163.5 -67t-70.5 -169q0 -73 50 -114t119 -41zM506 744v-24q-32 -6 -48 -18.5t-23 -37.5h32l-19 -71h-72l17 62q12 44 38 64t75 25z" />
    <glyph glyph-name="Hbar" unicode="&#x126;" horiz-adv-x="756" 
d="M98 509l12 45h74l40 146h52l-39 -146h443l39 146h52l-39 -146h75l-12 -45h-75l-137 -509h-52l87 323h-443l-87 -323h-52l136 509h-74zM188 371h443l37 138h-443z" />
    <glyph glyph-name="hbar" unicode="&#x127;" horiz-adv-x="609" 
d="M25 0l166 618h-70l12 45h70l18 67h49l-18 -67h185l-12 -45h-185l-55 -203q89 107 193 107q76 0 121.5 -44.5t45.5 -117.5q0 -28 -11 -72l-76 -288h-49l78 292q8 30 8 63q0 57 -35 90t-96 33q-67 0 -129 -54t-84 -136l-77 -288h-49z" />
    <glyph glyph-name="Imacron" unicode="&#x12a;" horiz-adv-x="274" 
d="M43 0l188 700h52l-188 -700h-52zM127 791l13 49h310l-13 -49h-310z" />
    <glyph glyph-name="imacron" unicode="&#x12b;" horiz-adv-x="250" 
d="M32 0l137 510h49l-137 -510h-49zM71 621l13 47h304l-13 -47h-304z" />
    <glyph glyph-name="Ibreve" unicode="&#x12c;" horiz-adv-x="274" 
d="M43 0l188 700h52l-188 -700h-52zM277 763q-56 0 -85.5 26.5t-20.5 73.5h42q1 -26 18 -39t57 -13q70 0 103 52h46q-16 -47 -60 -73.5t-100 -26.5z" />
    <glyph glyph-name="ibreve" unicode="&#x12d;" horiz-adv-x="250" 
d="M32 0l137 510h49l-137 -510h-49zM219 593q-58 0 -86 30t-18 82h38q-1 -32 16.5 -48t58.5 -16q72 0 110 64h43q-18 -52 -62 -82t-100 -30z" />
    <glyph glyph-name="Iogonek" unicode="&#x12e;" horiz-adv-x="274" 
d="M-39 -98q0 48 83 103l187 695h52l-188 -700h-3q-80 -52 -80 -90q0 -30 66 -38l-9 -36q-108 7 -108 66z" />
    <glyph glyph-name="iogonek" unicode="&#x12f;" horiz-adv-x="250" 
d="M-53 -98q0 50 87 106l135 502h49l-137 -510h-3q-80 -52 -80 -90q0 -30 66 -38l-9 -36q-108 7 -108 66zM199 643l18 67h61l-18 -67h-61z" />
    <glyph glyph-name="Idotaccent" unicode="&#x130;" horiz-adv-x="274" 
d="M43 0l188 700h52l-188 -700h-52zM236 765l21 76h76l-21 -76h-76z" />
    <glyph glyph-name="dotlessi" unicode="&#x131;" horiz-adv-x="250" 
d="M32 0l137 510h49l-137 -510h-49z" />
    <glyph glyph-name="Kcommaaccent" unicode="&#x136;" horiz-adv-x="714" 
d="M36 0l188 700h52l-122 -455l560 455h77l-389 -313l212 -387h-60l-195 357l-224 -182l-47 -175h-52zM195 -220v24q32 6 48 18.5t23 37.5h-32l19 71h72l-17 -62q-12 -44 -38 -64t-75 -25z" />
    <glyph glyph-name="kcommaaccent" unicode="&#x137;" horiz-adv-x="560" 
d="M25 0l196 730h49l-145 -541l396 321h71l-284 -228l152 -282h-57l-136 252l-160 -128l-33 -124h-49zM112 -225v24q32 6 48 18.5t23 37.5h-32l19 71h72l-17 -62q-12 -44 -38 -64t-75 -25z" />
    <glyph glyph-name="Lacute" unicode="&#x139;" horiz-adv-x="600" 
d="M36 0l188 700h52l-175 -652h411l-13 -48h-463zM253 765l124 118l60 -28l-131 -90h-53z" />
    <glyph glyph-name="lacute" unicode="&#x13a;" horiz-adv-x="250" 
d="M32 0l196 730h49l-196 -730h-49zM247 788l124 118l60 -28l-131 -90h-53z" />
    <glyph glyph-name="Lcommaaccent" unicode="&#x13b;" horiz-adv-x="600" 
d="M36 0l188 700h52l-175 -652h411l-13 -48h-463zM142 -225v24q32 6 48 18.5t23 37.5h-32l19 71h72l-17 -62q-12 -44 -38 -64t-75 -25z" />
    <glyph glyph-name="lcommaaccent" unicode="&#x13c;" horiz-adv-x="250" 
d="M32 0l196 730h49l-196 -730h-49zM-49 -225v24q32 6 48 18.5t23 37.5h-32l19 71h72l-17 -62q-12 -44 -38 -64t-75 -25z" />
    <glyph glyph-name="Lcaron" unicode="&#x13d;" horiz-adv-x="600" 
d="M36 0l188 700h52l-175 -652h411l-13 -48h-463zM320 551l56 149h61v-3l-88 -146h-29z" />
    <glyph glyph-name="lcaron" unicode="&#x13e;" horiz-adv-x="250" 
d="M32 0l196 730h49l-196 -730h-49zM309 581l56 149h61v-3l-88 -146h-29z" />
    <glyph glyph-name="Ldot" unicode="&#x13f;" horiz-adv-x="619" 
d="M440 322l22 81h72l-22 -81h-72zM37 0l188 700h52l-175 -652h411l-13 -48h-463z" />
    <glyph glyph-name="ldot" unicode="&#x140;" horiz-adv-x="310" 
d="M263 325l21 81h72l-21 -81h-72zM32 0l196 730h49l-196 -730h-49z" />
    <glyph glyph-name="Lslash" unicode="&#x141;" horiz-adv-x="650" 
d="M470 401l-243 -70l-76 -283h411l-13 -48h-463l85 315l-80 -22l12 48l81 23l90 336h52l-86 -320l243 69z" />
    <glyph glyph-name="lslash" unicode="&#x142;" horiz-adv-x="309" 
d="M288 374l-83 -24l-94 -350h-49l90 335l-81 -23l13 50l81 23l93 345h49l-89 -330l84 24z" />
    <glyph glyph-name="Nacute" unicode="&#x143;" horiz-adv-x="786" 
d="M36 0l188 700h48l315 -613l165 613h50l-188 -700h-38l-322 626l-168 -626h-50zM499 760l124 118l60 -28l-131 -90h-53z" />
    <glyph glyph-name="nacute" unicode="&#x144;" horiz-adv-x="611" 
d="M25 0l136 510h49l-25 -95q89 107 193 107q76 0 121.5 -44.5t45.5 -117.5q0 -28 -11 -72l-76 -288h-49l78 292q8 30 8 63q0 57 -35 90t-96 33q-67 0 -129 -54t-84 -136l-77 -288h-49zM366 595l124 133l62 -30l-135 -103h-51z" />
    <glyph glyph-name="Ncommaaccent" unicode="&#x145;" horiz-adv-x="786" 
d="M36 0l188 700h48l315 -613l165 613h50l-188 -700h-38l-322 626l-168 -626h-50zM221 -220v24q32 6 48 18.5t23 37.5h-32l19 71h72l-17 -62q-12 -44 -38 -64t-75 -25z" />
    <glyph glyph-name="ncommaaccent" unicode="&#x146;" horiz-adv-x="611" 
d="M25 0l136 510h49l-25 -95q89 107 193 107q76 0 121.5 -44.5t45.5 -117.5q0 -28 -11 -72l-76 -288h-49l78 292q8 30 8 63q0 57 -35 90t-96 33q-67 0 -129 -54t-84 -136l-77 -288h-49zM131 -225v24q32 6 48 18.5t23 37.5h-32l19 71h72l-17 -62q-12 -44 -38 -64t-75 -25z
" />
    <glyph glyph-name="Ncaron" unicode="&#x147;" horiz-adv-x="786" 
d="M36 0l188 700h48l315 -613l165 613h50l-188 -700h-38l-322 626l-168 -626h-50zM690 867l-132 -107h-46l-74 107h50l56 -61l90 61h56z" />
    <glyph glyph-name="ncaron" unicode="&#x148;" horiz-adv-x="611" 
d="M25 0l136 510h49l-25 -95q89 107 193 107q76 0 121.5 -44.5t45.5 -117.5q0 -28 -11 -72l-76 -288h-49l78 292q8 30 8 63q0 57 -35 90t-96 33q-67 0 -129 -54t-84 -136l-77 -288h-49zM532 717l-133 -122h-40l-67 122h44l52 -68l96 68h48z" />
    <glyph glyph-name="Omacron" unicode="&#x14c;" horiz-adv-x="846" 
d="M398 -13q-131 0 -216.5 86.5t-85.5 214.5q0 108 53.5 206t147 158t202.5 60q131 0 216.5 -86.5t85.5 -214.5q0 -108 -53.5 -206t-147 -158t-202.5 -60zM398 34q96 0 177 54t126.5 140.5t45.5 182.5q0 109 -69 181.5t-179 72.5q-96 0 -177 -54t-126.5 -140.5t-45.5 -182.5
q0 -109 69 -181.5t179 -72.5zM402 801l13 49h310l-13 -49h-310z" />
    <glyph glyph-name="omacron" unicode="&#x14d;" horiz-adv-x="633" 
d="M278 -12q-101 0 -164 63.5t-63 162.5q0 122 91 215t212 93q101 0 164 -63.5t63 -162.5q0 -124 -92 -216t-211 -92zM283 34q95 0 170 78t75 182q0 85 -49 133.5t-130 48.5q-97 0 -171 -79t-74 -181q0 -85 49 -133.5t130 -48.5zM256 621l13 47h304l-13 -47h-304z" />
    <glyph glyph-name="Obreve" unicode="&#x14e;" horiz-adv-x="846" 
d="M398 -13q-131 0 -216.5 86.5t-85.5 214.5q0 108 53.5 206t147 158t202.5 60q131 0 216.5 -86.5t85.5 -214.5q0 -108 -53.5 -206t-147 -158t-202.5 -60zM398 34q96 0 177 54t126.5 140.5t45.5 182.5q0 109 -69 181.5t-179 72.5q-96 0 -177 -54t-126.5 -140.5t-45.5 -182.5
q0 -109 69 -181.5t179 -72.5zM552 773q-56 0 -85.5 26.5t-20.5 73.5h42q1 -26 18 -39t57 -13q71 0 103 52h46q-16 -47 -60 -73.5t-100 -26.5z" />
    <glyph glyph-name="obreve" unicode="&#x14f;" horiz-adv-x="633" 
d="M278 -12q-101 0 -164 63.5t-63 162.5q0 122 91 215t212 93q101 0 164 -63.5t63 -162.5q0 -124 -92 -216t-211 -92zM283 34q95 0 170 78t75 182q0 85 -49 133.5t-130 48.5q-97 0 -171 -79t-74 -181q0 -85 49 -133.5t130 -48.5zM404 593q-58 0 -86 30t-18 82h38
q-1 -32 16.5 -48t58.5 -16q72 0 110 64h43q-18 -52 -62 -82t-100 -30z" />
    <glyph glyph-name="Ohungarumlaut" unicode="&#x150;" horiz-adv-x="846" 
d="M398 -13q-131 0 -216.5 86.5t-85.5 214.5q0 108 53.5 206t147 158t202.5 60q131 0 216.5 -86.5t85.5 -214.5q0 -108 -53.5 -206t-147 -158t-202.5 -60zM398 34q96 0 177 54t126.5 140.5t45.5 182.5q0 109 -69 181.5t-179 72.5q-96 0 -177 -54t-126.5 -140.5t-45.5 -182.5
q0 -109 69 -181.5t179 -72.5zM435 775l124 118l60 -28l-131 -90h-53zM575 775l124 118l60 -28l-131 -90h-53z" />
    <glyph glyph-name="ohungarumlaut" unicode="&#x151;" horiz-adv-x="633" 
d="M278 -12q-101 0 -164 63.5t-63 162.5q0 122 91 215t212 93q101 0 164 -63.5t63 -162.5q0 -124 -92 -216t-211 -92zM283 34q95 0 170 78t75 182q0 85 -49 133.5t-130 48.5q-97 0 -171 -79t-74 -181q0 -85 49 -133.5t130 -48.5zM441 595l125 133l47 -29l-129 -104h-43z
M289 595l125 133l47 -29l-129 -104h-43z" />
    <glyph glyph-name="OE" unicode="&#x152;" horiz-adv-x="1154" 
d="M441 0q-178 0 -272 94q-77 77 -77 200q0 162 109 271q64 64 156.5 99.5t199.5 35.5h649l-13 -48h-430l-74 -275h385l-13 -48h-385l-75 -281h435l-13 -48h-582zM444 48h105l162 604h-161q-190 0 -310 -120q-94 -94 -94 -234q0 -106 65 -171q79 -79 233 -79z" />
    <glyph glyph-name="oe" unicode="&#x153;" horiz-adv-x="1046" 
d="M570 238q-2 -22 -2 -34q0 -77 47 -123.5t122 -46.5q91 0 174 68l29 -35q-95 -79 -200 -79q-81 0 -138 42.5t-73 112.5q-41 -68 -106 -111.5t-148 -43.5q-97 0 -160.5 64t-63.5 162q0 122 91 215t212 93q84 0 139 -46t71 -117q88 163 246 163q92 0 142.5 -56t50.5 -139
q0 -49 -14 -89h-419zM579 282h370q4 18 4 42q0 66 -36.5 109.5t-107.5 43.5q-82 0 -144.5 -56t-85.5 -139zM283 34q94 0 169.5 77t75.5 178q0 88 -49 137.5t-130 49.5q-97 0 -171 -79t-74 -181q0 -85 49 -133.5t130 -48.5z" />
    <glyph glyph-name="Racute" unicode="&#x154;" horiz-adv-x="713" 
d="M36 0l188 700h251q126 0 188 -62q44 -44 44 -114q0 -84 -62 -146q-68 -68 -206 -83l154 -295h-60l-150 290h-217l-78 -290h-52zM178 337h210q149 0 220 71q47 47 47 113q0 52 -31 83q-48 48 -151 48h-210zM427 765l124 118l60 -28l-131 -90h-53z" />
    <glyph glyph-name="racute" unicode="&#x155;" horiz-adv-x="396" 
d="M25 0l136 510h49l-38 -145q115 161 262 153l-14 -54h-4q-92 0 -173.5 -69t-112.5 -186l-56 -209h-49zM257 595l124 133l62 -30l-135 -103h-51z" />
    <glyph glyph-name="Rcommaaccent" unicode="&#x156;" horiz-adv-x="713" 
d="M36 0l188 700h251q126 0 188 -62q44 -44 44 -114q0 -84 -62 -146q-68 -68 -206 -83l154 -295h-60l-150 290h-217l-78 -290h-52zM178 337h210q149 0 220 71q47 47 47 113q0 52 -31 83q-48 48 -151 48h-210zM183 -220v24q32 6 48 18.5t23 37.5h-32l19 71h72l-17 -62
q-12 -44 -38 -64t-75 -25z" />
    <glyph glyph-name="rcommaaccent" unicode="&#x157;" horiz-adv-x="396" 
d="M25 0l136 510h49l-38 -145q115 161 262 153l-14 -54h-4q-92 0 -173.5 -69t-112.5 -186l-56 -209h-49zM-49 -225v24q32 6 48 18.5t23 37.5h-32l19 71h72l-17 -62q-12 -44 -38 -64t-75 -25z" />
    <glyph glyph-name="Rcaron" unicode="&#x158;" horiz-adv-x="713" 
d="M36 0l188 700h251q126 0 188 -62q44 -44 44 -114q0 -84 -62 -146q-68 -68 -206 -83l154 -295h-60l-150 290h-217l-78 -290h-52zM178 337h210q149 0 220 71q47 47 47 113q0 52 -31 83q-48 48 -151 48h-210zM619 872l-132 -107h-46l-74 107h50l56 -61l90 61h56z" />
    <glyph glyph-name="rcaron" unicode="&#x159;" horiz-adv-x="396" 
d="M25 0l136 510h49l-38 -145q115 161 262 153l-14 -54h-4q-92 0 -173.5 -69t-112.5 -186l-56 -209h-49zM422 717l-133 -122h-40l-67 122h44l52 -68l96 68h48z" />
    <glyph glyph-name="Sacute" unicode="&#x15a;" horiz-adv-x="638" 
d="M299 -10q-184 0 -279 134l40 29q46 -59 104 -87.5t140 -28.5q86 0 144 43.5t58 109.5q0 46 -34 77t-119 64q-111 43 -155.5 83t-44.5 103q0 81 70 137t181 56q76 0 139.5 -29.5t103.5 -77.5l-40 -32q-80 92 -208 92q-87 0 -140 -42t-53 -100q0 -47 38 -77.5t129 -65.5
q100 -38 143 -79.5t43 -104.5q0 -86 -74 -145t-186 -59zM417 775l124 118l60 -28l-131 -90h-53z" />
    <glyph glyph-name="sacute" unicode="&#x15b;" horiz-adv-x="495" 
d="M217 -11q-128 0 -216 88l35 35q81 -78 187 -78q51 0 91.5 28.5t40.5 72.5q0 31 -23.5 54t-87.5 47q-76 28 -109.5 58.5t-33.5 78.5q0 62 52.5 105t136.5 43q103 0 184 -68l-32 -37q-73 60 -157 60q-61 0 -96.5 -28t-35.5 -67q0 -31 23 -52t92 -48q76 -30 107.5 -61
t31.5 -77q0 -66 -56 -110t-134 -44zM299 595l124 133l62 -30l-135 -103h-51z" />
    <glyph glyph-name="Scedilla" unicode="&#x15e;" horiz-adv-x="638" 
d="M183 -148l-48 26l109 116q-145 18 -224 130l40 29q46 -59 104 -87.5t140 -28.5q86 0 144 43.5t58 109.5q0 46 -34 77t-119 64q-111 43 -155.5 83t-44.5 103q0 81 70 137t181 56q76 0 139.5 -29.5t103.5 -77.5l-40 -32q-80 92 -208 92q-87 0 -140 -42t-53 -100
q0 -47 38 -77.5t129 -65.5q100 -38 143 -79.5t43 -104.5q0 -86 -74 -145t-186 -59h-11z" />
    <glyph glyph-name="scedilla" unicode="&#x15f;" horiz-adv-x="495" 
d="M102 -148l-48 26l109 116q-95 16 -162 83l35 35q81 -78 187 -78q51 0 91.5 28.5t40.5 72.5q0 31 -23.5 54t-87.5 47q-76 28 -109.5 58.5t-33.5 78.5q0 62 52.5 105t136.5 43q103 0 184 -68l-32 -37q-73 60 -157 60q-61 0 -96.5 -28t-35.5 -67q0 -31 23 -52t92 -48
q76 -30 107.5 -61t31.5 -77q0 -66 -56 -110t-134 -44h-11z" />
    <glyph glyph-name="Scaron" unicode="&#x160;" horiz-adv-x="638" 
d="M299 -10q-184 0 -279 134l40 29q46 -59 104 -87.5t140 -28.5q86 0 144 43.5t58 109.5q0 46 -34 77t-119 64q-111 43 -155.5 83t-44.5 103q0 81 70 137t181 56q76 0 139.5 -29.5t103.5 -77.5l-40 -32q-80 92 -208 92q-87 0 -140 -42t-53 -100q0 -47 38 -77.5t129 -65.5
q100 -38 143 -79.5t43 -104.5q0 -86 -74 -145t-186 -59zM608 882l-132 -107h-46l-74 107h50l56 -61l90 61h56z" />
    <glyph glyph-name="scaron" unicode="&#x161;" horiz-adv-x="495" 
d="M217 -11q-128 0 -216 88l35 35q81 -78 187 -78q51 0 91.5 28.5t40.5 72.5q0 31 -23.5 54t-87.5 47q-76 28 -109.5 58.5t-33.5 78.5q0 62 52.5 105t136.5 43q103 0 184 -68l-32 -37q-73 60 -157 60q-61 0 -96.5 -28t-35.5 -67q0 -31 23 -52t92 -48q76 -30 107.5 -61
t31.5 -77q0 -66 -56 -110t-134 -44zM464 717l-133 -122h-40l-67 122h44l52 -68l96 68h48z" />
    <glyph glyph-name="Tcommaaccent" unicode="&#x162;" horiz-adv-x="615" 
d="M209 0l175 652h-244l13 48h540l-13 -48h-244l-175 -652h-52zM130 -225v24q32 6 48 18.5t23 37.5h-32l19 71h72l-17 -62q-12 -44 -38 -64t-75 -25z" />
    <glyph glyph-name="tcommaaccent" unicode="&#x163;" horiz-adv-x="396" 
d="M206 -9q-54 0 -88 25.5t-34 75.5q0 23 6 49l87 324h-74l12 45h74l44 163h49l-44 -163h176l-12 -45h-176l-87 -325q-5 -22 -5 -43q0 -61 83 -61q32 0 74 16l-13 -48q-35 -13 -72 -13zM55 -225v24q32 6 48 18.5t23 37.5h-32l19 71h72l-17 -62q-12 -44 -38 -64t-75 -25z" />
    <glyph glyph-name="Tcaron" unicode="&#x164;" horiz-adv-x="615" 
d="M209 0l175 652h-244l13 48h540l-13 -48h-244l-175 -652h-52zM602 872l-132 -107h-46l-74 107h50l56 -61l90 61h56z" />
    <glyph glyph-name="tcaron" unicode="&#x165;" horiz-adv-x="396" 
d="M206 -9q-54 0 -88 25.5t-34 75.5q0 23 6 49l87 324h-74l12 45h74l44 163h49l-44 -163h176l-12 -45h-176l-87 -325q-5 -22 -5 -43q0 -61 83 -61q32 0 74 16l-13 -48q-35 -13 -72 -13zM348 587l56 149h61v-3l-88 -146h-29z" />
    <glyph glyph-name="Umacron" unicode="&#x16a;" horiz-adv-x="756" 
d="M348 -11q-122 0 -187 61t-65 159q0 54 14 108l102 383h52l-108 -407q-9 -36 -9 -80q0 -79 52 -128t153 -49q99 0 171 72q65 65 98 186l109 406h52l-112 -417q-35 -130 -111 -206q-88 -88 -211 -88zM356 786l13 49h310l-13 -49h-310z" />
    <glyph glyph-name="umacron" unicode="&#x16b;" horiz-adv-x="609" 
d="M231 -12q-76 0 -121.5 44.5t-45.5 117.5q0 28 11 72l76 288h49l-78 -292q-8 -30 -8 -63q0 -57 35 -90t96 -33q67 0 129 54t84 136l77 288h49l-136 -510h-49l25 95q-89 -107 -193 -107zM239 621l13 47h304l-13 -47h-304z" />
    <glyph glyph-name="Ubreve" unicode="&#x16c;" horiz-adv-x="756" 
d="M348 -11q-122 0 -187 61t-65 159q0 54 14 108l102 383h52l-108 -407q-9 -36 -9 -80q0 -79 52 -128t153 -49q99 0 171 72q65 65 98 186l109 406h52l-112 -417q-35 -130 -111 -206q-88 -88 -211 -88zM507 758q-56 0 -85.5 26.5t-20.5 73.5h42q1 -26 18 -39t57 -13
q70 0 103 52h46q-16 -47 -60 -73.5t-100 -26.5z" />
    <glyph glyph-name="ubreve" unicode="&#x16d;" horiz-adv-x="609" 
d="M231 -12q-76 0 -121.5 44.5t-45.5 117.5q0 28 11 72l76 288h49l-78 -292q-8 -30 -8 -63q0 -57 35 -90t96 -33q67 0 129 54t84 136l77 288h49l-136 -510h-49l25 95q-89 -107 -193 -107zM387 593q-58 0 -86 30t-18 82h38q-1 -32 16.5 -48t58.5 -16q72 0 110 64h43
q-18 -52 -62 -82t-100 -30z" />
    <glyph glyph-name="Uring" unicode="&#x16e;" horiz-adv-x="756" 
d="M348 -11q-122 0 -187 61t-65 159q0 54 14 108l102 383h52l-108 -407q-9 -36 -9 -80q0 -79 52 -128t153 -49q99 0 171 72q65 65 98 186l109 406h52l-112 -417q-35 -130 -111 -206q-88 -88 -211 -88zM515 748q-41 0 -67.5 23.5t-26.5 59.5q0 45 36.5 76t84.5 31
q41 0 67.5 -23.5t26.5 -59.5q0 -45 -36.5 -76t-84.5 -31zM519 780q31 0 54.5 20.5t23.5 51.5q0 23 -15.5 38.5t-43.5 15.5q-31 0 -54.5 -20.5t-23.5 -51.5q0 -25 16.5 -39.5t42.5 -14.5z" />
    <glyph glyph-name="uring" unicode="&#x16f;" horiz-adv-x="609" 
d="M231 -12q-76 0 -121.5 44.5t-45.5 117.5q0 28 11 72l76 288h49l-78 -292q-8 -30 -8 -63q0 -57 35 -90t96 -33q67 0 129 54t84 136l77 288h49l-136 -510h-49l25 95q-89 -107 -193 -107zM400 588q-44 0 -72 26.5t-28 65.5q0 44 36 76t82 32q44 0 72 -26.5t28 -65.5
q0 -44 -36 -76t-82 -32zM401 620q33 0 57 22t24 53q0 26 -17.5 43.5t-47.5 17.5q-33 0 -57 -22t-24 -53q0 -26 17.5 -43.5t47.5 -17.5z" />
    <glyph glyph-name="Uhungarumlaut" unicode="&#x170;" horiz-adv-x="756" 
d="M348 -11q-122 0 -187 61t-65 159q0 54 14 108l102 383h52l-108 -407q-9 -36 -9 -80q0 -79 52 -128t153 -49q99 0 171 72q65 65 98 186l109 406h52l-112 -417q-35 -130 -111 -206q-88 -88 -211 -88zM389 760l124 118l60 -28l-131 -90h-53zM529 760l124 118l60 -28
l-131 -90h-53z" />
    <glyph glyph-name="uhungarumlaut" unicode="&#x171;" horiz-adv-x="609" 
d="M231 -12q-76 0 -121.5 44.5t-45.5 117.5q0 28 11 72l76 288h49l-78 -292q-8 -30 -8 -63q0 -57 35 -90t96 -33q67 0 129 54t84 136l77 288h49l-136 -510h-49l25 95q-89 -107 -193 -107zM423 595l125 133l47 -29l-129 -104h-43zM271 595l125 133l47 -29l-129 -104h-43z" />
    <glyph glyph-name="Uogonek" unicode="&#x172;" horiz-adv-x="756" 
d="M224 -98q0 45 66 92q-95 14 -144.5 72t-49.5 143q0 54 14 108l102 383h52l-108 -407q-9 -36 -9 -80q0 -79 52 -128t153 -49q99 0 171 72q65 65 98 186l109 406h52l-112 -417q-35 -130 -111 -206q-88 -88 -211 -88h-9q-64 -45 -64 -79q0 -30 66 -38l-9 -36q-108 7 -108 66
z" />
    <glyph glyph-name="uogonek" unicode="&#x173;" horiz-adv-x="609" 
d="M313 -98q0 50 88 107l23 86q-89 -107 -193 -107q-76 0 -121.5 44.5t-45.5 117.5q0 28 11 72l76 288h49l-78 -292q-8 -30 -8 -63q0 -57 35 -90t96 -33q67 0 129 54t84 136l77 288h49l-136 -510h-4q-80 -52 -80 -90q0 -30 66 -38l-9 -36q-108 7 -108 66z" />
    <glyph glyph-name="Wcircumflex" unicode="&#x174;" horiz-adv-x="1074" 
d="M215 -5l-65 705h54l53 -623l372 625h40l38 -625l387 623h58l-443 -705h-42l-42 608l-368 -608h-42zM530 765l132 107h46l74 -107h-50l-56 61l-90 -61h-56z" />
    <glyph glyph-name="wcircumflex" unicode="&#x175;" horiz-adv-x="845" 
d="M148 -4l-49 514h50l37 -444l273 446h39l35 -446l275 444h54l-325 -514h-43l-35 437l-270 -437h-41zM378 595l133 122h40l67 -122h-44l-52 68l-96 -68h-48z" />
    <glyph glyph-name="Ycircumflex" unicode="&#x176;" horiz-adv-x="668" 
d="M234 0l76 284l-183 416h57l161 -376l364 376h70l-421 -429l-72 -271h-52zM321 760l132 107h46l74 -107h-50l-56 61l-90 -61h-56z" />
    <glyph glyph-name="ycircumflex" unicode="&#x177;" horiz-adv-x="568" 
d="M20 -163q-58 0 -108 35l27 40q36 -29 87 -29q40 0 78.5 27.5t84.5 92.5l-104 507h52l89 -456l307 456h59l-363 -528q-54 -78 -103.5 -111.5t-105.5 -33.5zM221 595l133 122h40l67 -122h-44l-52 68l-96 -68h-48z" />
    <glyph glyph-name="Ydieresis" unicode="&#x178;" horiz-adv-x="668" 
d="M234 0l76 284l-183 416h57l161 -376l364 376h70l-421 -429l-72 -271h-52zM506 760l21 76h73l-21 -76h-73zM330 760l21 76h74l-21 -76h-74z" />
    <glyph glyph-name="Zacute" unicode="&#x179;" horiz-adv-x="662" 
d="M-19 0l8 29l636 624h-452l13 47h533l-8 -29l-636 -624h472l-13 -47h-553zM413 765l124 118l60 -28l-131 -90h-53z" />
    <glyph glyph-name="zacute" unicode="&#x17a;" horiz-adv-x="546" 
d="M-17 0l8 28l475 438h-344l12 44h424l-8 -28l-475 -438h361l-12 -44h-441zM315 595l124 133l62 -30l-135 -103h-51z" />
    <glyph glyph-name="Zdotaccent" unicode="&#x17b;" horiz-adv-x="662" 
d="M-19 0l8 29l636 624h-452l13 47h533l-8 -29l-636 -624h472l-13 -47h-553zM405 765l21 76h76l-21 -76h-76z" />
    <glyph glyph-name="zdotaccent" unicode="&#x17c;" horiz-adv-x="546" 
d="M-17 0l8 28l475 438h-344l12 44h424l-8 -28l-475 -438h361l-12 -44h-441zM311 593l23 85h66l-23 -85h-66z" />
    <glyph glyph-name="Zcaron" unicode="&#x17d;" horiz-adv-x="662" 
d="M-19 0l8 29l636 624h-452l13 47h533l-8 -29l-636 -624h472l-13 -47h-553zM605 872l-132 -107h-46l-74 107h50l56 -61l90 61h56z" />
    <glyph glyph-name="zcaron" unicode="&#x17e;" horiz-adv-x="546" 
d="M-17 0l8 28l475 438h-344l12 44h424l-8 -28l-475 -438h361l-12 -44h-441zM480 717l-133 -122h-40l-67 122h44l52 -68l96 68h48z" />
    <glyph glyph-name="florin" unicode="&#x192;" horiz-adv-x="526" 
d="M33 -10q-30 0 -56 8l13 43q21 -7 47 -7q35 0 61.5 25.5t51.5 81.5l107 243h-107l12 45h114l59 134q64 147 178 147q43 0 83 -15l-15 -42q-37 13 -70 13q-80 0 -131 -115l-54 -122h162l-12 -45h-169l-112 -255q-33 -76 -71.5 -107.5t-90.5 -31.5z" />
    <glyph glyph-name="Aringacute" unicode="&#x1fa;" horiz-adv-x="759" 
d="M-34 0l489 669q-45 23 -45 72q0 45 36.5 76t84.5 31q41 0 67.5 -23.5t26.5 -59.5t-24.5 -64.5t-61.5 -38.5l129 -662h-53l-36 196h-413l-142 -196h-58zM200 243h369l-75 405zM508 690q31 0 54.5 20.5t23.5 51.5q0 23 -15.5 38.5t-43.5 15.5q-31 0 -54.5 -20.5
t-23.5 -51.5q0 -25 16.5 -39.5t42.5 -14.5zM523 878l122 108l57 -28l-126 -80h-53z" />
    <glyph glyph-name="aringacute" unicode="&#x1fb;" horiz-adv-x="571" 
d="M394 820l121 118l55 -30l-128 -88h-48zM190 -12q-69 0 -118 37.5t-49 105.5q0 84 64 134.5t166 50.5q90 0 196 -29l4 14q7 26 7 51q0 58 -39.5 89t-114.5 31q-70 0 -148 -27l-9 44q81 29 161 29q93 0 145.5 -42.5t52.5 -116.5q0 -29 -10 -67l-78 -292h-48l23 88
q-84 -100 -205 -100zM199 33q75 0 141.5 47.5t86.5 122.5l12 45q-96 24 -193 24q-76 0 -123.5 -37.5t-47.5 -97.5q0 -47 33.5 -75.5t90.5 -28.5zM377 593q-44 0 -72 26.5t-28 65.5q0 44 36 76t82 32q44 0 72 -26.5t28 -65.5q0 -44 -36 -76t-82 -32zM378 625q33 0 57 22
t24 53q0 26 -17.5 43.5t-47.5 17.5q-33 0 -57 -22t-24 -53q0 -26 17.5 -43.5t47.5 -17.5z" />
    <glyph glyph-name="AEacute" unicode="&#x1fc;" horiz-adv-x="1068" 
d="M-32 0l611 700h541l-13 -48h-431l-74 -275h386l-13 -48h-386l-75 -281h436l-13 -48h-488l53 196h-301l-170 -196h-63zM242 243h272l110 410h-27zM725 765l124 118l60 -28l-131 -90h-53z" />
    <glyph glyph-name="aeacute" unicode="&#x1fd;" horiz-adv-x="965" 
d="M455 113q-120 -125 -255 -125q-77 0 -127 39t-50 109q0 82 66 131t168 49q97 0 192 -29l4 14q7 26 7 51q0 58 -39.5 89t-114.5 31q-70 0 -148 -27l-9 44q81 29 161 29t130.5 -32t63.5 -89q42 57 100.5 91t124.5 34q92 0 142.5 -56t50.5 -139q0 -49 -14 -89h-419
q-2 -22 -2 -34q0 -77 47 -123.5t122 -46.5q91 0 174 68l29 -35q-95 -79 -200 -79q-75 0 -127.5 33.5t-76.5 91.5zM498 282h370q4 18 4 42q0 66 -36.5 109.5t-107.5 43.5q-82 0 -144.5 -56t-85.5 -139zM441 249q-81 23 -191 23q-76 0 -125.5 -37t-49.5 -93q0 -50 34 -79.5
t95 -29.5q123 0 238 125q-4 20 -4 48q0 22 3 43zM520 595l124 133l62 -30l-135 -103h-51z" />
    <glyph glyph-name="Oslashacute" unicode="&#x1fe;" horiz-adv-x="846" 
d="M52 -5h-69l157 131q-44 74 -44 162q0 108 53.5 206t147 158t202.5 60q140 0 226 -97l108 90h69l-150 -125q49 -76 49 -169q0 -108 -53.5 -206t-147 -158t-202.5 -60q-145 0 -232 103zM398 34q96 0 177 54t126.5 140.5t45.5 182.5q0 76 -34 136l-509 -425q69 -88 194 -88z
M150 288q0 -74 30 -129l507 424q-69 82 -188 82q-96 0 -177 -54t-126.5 -140.5t-45.5 -182.5zM519 775l124 118l60 -28l-131 -90h-53z" />
    <glyph glyph-name="oslashacute" unicode="&#x1ff;" horiz-adv-x="633" 
d="M32 -5h-67l118 96q-32 53 -32 123q0 122 91 215t212 93q105 0 169 -70l79 65h67l-120 -98q32 -53 32 -123q0 -124 -92 -216t-211 -92q-106 0 -170 69zM283 34q95 0 170 78t75 182q0 51 -19 92l-363 -297q47 -55 137 -55zM104 216q0 -51 19 -92l362 297q-47 55 -136 55
q-97 0 -171 -79t-74 -181zM372 595l124 133l62 -30l-135 -103h-51z" />
    <glyph glyph-name="Scommaaccent" unicode="&#x218;" horiz-adv-x="638" 
d="M299 -10q-184 0 -279 134l40 29q46 -59 104 -87.5t140 -28.5q86 0 144 43.5t58 109.5q0 46 -34 77t-119 64q-111 43 -155.5 83t-44.5 103q0 81 70 137t181 56q76 0 139.5 -29.5t103.5 -77.5l-40 -32q-80 92 -208 92q-87 0 -140 -42t-53 -100q0 -47 38 -77.5t129 -65.5
q100 -38 143 -79.5t43 -104.5q0 -86 -74 -145t-186 -59zM134 -225v24q32 6 48 18.5t23 37.5h-32l19 71h72l-17 -62q-12 -44 -38 -64t-75 -25z" />
    <glyph glyph-name="scommaaccent" unicode="&#x219;" horiz-adv-x="495" 
d="M217 -11q-128 0 -216 88l35 35q81 -78 187 -78q51 0 91.5 28.5t40.5 72.5q0 31 -23.5 54t-87.5 47q-76 28 -109.5 58.5t-33.5 78.5q0 62 52.5 105t136.5 43q103 0 184 -68l-32 -37q-73 60 -157 60q-61 0 -96.5 -28t-35.5 -67q0 -31 23 -52t92 -48q76 -30 107.5 -61
t31.5 -77q0 -66 -56 -110t-134 -44zM63 -225v24q32 6 48 18.5t23 37.5h-32l19 71h72l-17 -62q-12 -44 -38 -64t-75 -25z" />
    <glyph glyph-name="schwa" unicode="&#x259;" horiz-adv-x="583" 
d="M45 183q0 49 14 89h419q2 22 2 34q0 77 -47 123.5t-122 46.5q-91 0 -174 -68l-29 35q95 79 203 79q98 0 160 -60t62 -154q0 -123 -87 -221.5t-208 -98.5q-92 0 -142.5 56t-50.5 139zM239 33q82 0 144 56t86 139h-370q-4 -18 -4 -42q0 -66 36.5 -109.5t107.5 -43.5z" />
    <glyph glyph-name="circumflex" unicode="&#x2c6;" 
d="M222 595l133 122h40l67 -122h-44l-52 68l-96 -68h-48z" />
    <glyph glyph-name="caron" unicode="&#x2c7;" 
d="M494 717l-133 -122h-40l-67 122h44l52 -68l96 68h48z" />
    <glyph glyph-name="breve" unicode="&#x2d8;" 
d="M340 593q-58 0 -86 30t-18 82h38q-1 -32 16.5 -48t58.5 -16q72 0 110 64h43q-18 -52 -62 -82t-100 -30z" />
    <glyph glyph-name="dotaccent" unicode="&#x2d9;" 
d="M307 593l23 85h66l-23 -85h-66z" />
    <glyph glyph-name="ring" unicode="&#x2da;" 
d="M360 593q-44 0 -72 26.5t-28 65.5q0 44 36 76t82 32q44 0 72 -26.5t28 -65.5q0 -44 -36 -76t-82 -32zM361 625q33 0 57 22t24 53q0 26 -17.5 43.5t-47.5 17.5q-33 0 -57 -22t-24 -53q0 -26 17.5 -43.5t47.5 -17.5z" />
    <glyph glyph-name="ogonek" unicode="&#x2db;" 
d="M102 -98q0 30 26.5 57.5t76.5 58.5l30 -17q-82 -54 -82 -91q0 -30 66 -38l-9 -36q-108 7 -108 66z" />
    <glyph glyph-name="tilde" unicode="&#x2dc;" 
d="M230 586l-35 9q23 53 45.5 73t53.5 20q20 0 62 -20.5t58 -20.5q18 0 30.5 10.5t28.5 39.5l35 -9q-23 -53 -45.5 -73t-53.5 -20q-19 0 -61 20.5t-59 20.5q-18 0 -30.5 -10.5t-28.5 -39.5z" />
    <glyph glyph-name="hungarumlaut" unicode="&#x2dd;" 
d="M344 595l125 133l47 -29l-129 -104h-43zM192 595l125 133l47 -29l-129 -104h-43z" />
    <glyph glyph-name="commaaccent" unicode="&#x326;" 
d="M68 -225v24q32 6 48 18.5t23 37.5h-32l19 71h72l-17 -62q-12 -44 -38 -64t-75 -25z" />
    <glyph glyph-name="Wgrave" unicode="&#x1e80;" horiz-adv-x="1074" 
d="M215 -5l-65 705h54l53 -623l372 625h40l38 -625l387 623h58l-443 -705h-42l-42 608l-368 -608h-42zM606 883l62 -118h-37l-83 90z" />
    <glyph glyph-name="wgrave" unicode="&#x1e81;" horiz-adv-x="845" 
d="M148 -4l-49 514h50l37 -444l273 446h39l35 -446l275 444h54l-325 -514h-43l-35 437l-270 -437h-41zM474 595l-79 103l62 30l52 -133h-35z" />
    <glyph glyph-name="Wacute" unicode="&#x1e82;" horiz-adv-x="1074" 
d="M215 -5l-65 705h54l53 -623l372 625h40l38 -625l387 623h58l-443 -705h-42l-42 608l-368 -608h-42zM634 765l124 118l60 -28l-131 -90h-53z" />
    <glyph glyph-name="wacute" unicode="&#x1e83;" horiz-adv-x="845" 
d="M148 -4l-49 514h50l37 -444l273 446h39l35 -446l275 444h54l-325 -514h-43l-35 437l-270 -437h-41zM473 595l124 133l62 -30l-135 -103h-51z" />
    <glyph glyph-name="Wdieresis" unicode="&#x1e84;" horiz-adv-x="1074" 
d="M215 -5l-65 705h54l53 -623l372 625h40l38 -625l387 623h58l-443 -705h-42l-42 608l-368 -608h-42zM715 765l21 76h73l-21 -76h-73zM539 765l21 76h74l-21 -76h-74z" />
    <glyph glyph-name="wdieresis" unicode="&#x1e85;" horiz-adv-x="845" 
d="M148 -4l-49 514h50l37 -444l273 446h39l35 -446l275 444h54l-325 -514h-43l-35 437l-270 -437h-41zM549 595l22 80h69l-22 -80h-69zM386 595l22 80h69l-22 -80h-69z" />
    <glyph glyph-name="Ygrave" unicode="&#x1ef2;" horiz-adv-x="668" 
d="M234 0l76 284l-183 416h57l161 -376l364 376h70l-421 -429l-72 -271h-52zM397 878l62 -118h-37l-83 90z" />
    <glyph glyph-name="ygrave" unicode="&#x1ef3;" horiz-adv-x="568" 
d="M20 -163q-58 0 -108 35l27 40q36 -29 87 -29q40 0 78.5 27.5t84.5 92.5l-104 507h52l89 -456l307 456h59l-363 -528q-54 -78 -103.5 -111.5t-105.5 -33.5zM318 595l-79 103l62 30l52 -133h-35z" />
    <glyph glyph-name="enspace" unicode="&#x2002;" 
 />
    <glyph glyph-name="emspace" unicode="&#x2003;" horiz-adv-x="1000" 
 />
    <glyph glyph-name="threeperemspace" unicode="&#x2004;" horiz-adv-x="333" 
 />
    <glyph glyph-name="fourperemspace" unicode="&#x2005;" horiz-adv-x="250" 
 />
    <glyph glyph-name="thinspace" unicode="&#x2009;" horiz-adv-x="133" 
 />
    <glyph glyph-name="hairspace" unicode="&#x200a;" horiz-adv-x="75" 
 />
    <glyph glyph-name="endash" unicode="&#x2013;" horiz-adv-x="528" 
d="M74 271l14 52h388l-14 -52h-388z" />
    <glyph glyph-name="emdash" unicode="&#x2014;" horiz-adv-x="898" 
d="M74 271l14 52h758l-14 -52h-758z" />
    <glyph glyph-name="quoteleft" unicode="&#x2018;" horiz-adv-x="231" 
d="M147 513l20 74q14 52 39.5 77.5t75.5 39.5l7 -24q-69 -24 -80 -82h27l-23 -85h-66z" />
    <glyph glyph-name="quoteright" unicode="&#x2019;" horiz-adv-x="231" 
d="M128 509l-7 24q69 24 80 82h-27l23 85h66l-20 -74q-15 -52 -40 -77.5t-75 -39.5z" />
    <glyph glyph-name="quotesinglbase" unicode="&#x201a;" horiz-adv-x="231" 
d="M-32 -106l-7 24q69 24 80 82h-27l23 85h66l-20 -74q-15 -52 -40 -77.5t-75 -39.5z" />
    <glyph glyph-name="quotedblleft" unicode="&#x201c;" horiz-adv-x="411" 
d="M326 513l20 74q14 52 39.5 77.5t75.5 39.5l7 -24q-69 -24 -80 -82h27l-23 -85h-66zM146 513l20 74q14 52 39.5 77.5t75.5 39.5l7 -24q-69 -24 -80 -82h27l-23 -85h-66z" />
    <glyph glyph-name="quotedblright" unicode="&#x201d;" horiz-adv-x="411" 
d="M307 509l-7 24q69 24 80 82h-27l23 85h66l-20 -74q-15 -52 -40 -77.5t-75 -39.5zM127 509l-7 24q69 24 80 82h-27l23 85h66l-20 -74q-15 -52 -40 -77.5t-75 -39.5z" />
    <glyph glyph-name="quotedblbase" unicode="&#x201e;" horiz-adv-x="412" 
d="M149 -106l-7 24q69 24 80 82h-27l23 85h66l-20 -74q-15 -52 -40 -77.5t-75 -39.5zM-32 -106l-7 24q69 24 80 82h-27l23 85h66l-20 -74q-15 -52 -40 -77.5t-75 -39.5z" />
    <glyph glyph-name="dagger" unicode="&#x2020;" horiz-adv-x="410" 
d="M160 238l81 286l-126 -7l12 45l122 -7l32 145h50l-46 -145l126 7l-12 -45l-124 7l-71 -286h-44z" />
    <glyph glyph-name="daggerdbl" unicode="&#x2021;" horiz-adv-x="430" 
d="M103 0l46 145l-126 -7l12 45l123 -7l42 174l51 174l-126 -7l12 45l122 -7l32 145h50l-46 -145l126 7l-12 -45l-124 7l-41 -174l-52 -174l127 7l-12 -45l-122 7l-32 -145h-50z" />
    <glyph glyph-name="bullet" unicode="&#x2022;" horiz-adv-x="470" 
d="M232 222q-46 0 -75.5 29.5t-29.5 79.5q0 61 42.5 106t100.5 45q46 0 75.5 -29.5t29.5 -79.5q0 -61 -42.5 -106t-100.5 -45z" />
    <glyph glyph-name="ellipsis" unicode="&#x2026;" horiz-adv-x="683" 
d="M466 0l23 85h66l-23 -85h-66zM240 0l23 85h66l-23 -85h-66zM14 0l23 85h66l-23 -85h-66z" />
    <glyph glyph-name="perthousand" unicode="&#x2030;" horiz-adv-x="1203" 
d="M230 346q-60 0 -98.5 41.5t-38.5 101.5q0 86 56 152.5t135 66.5q60 0 98.5 -41.5t38.5 -101.5q0 -86 -56 -152.5t-135 -66.5zM65 0l682 700h60l-682 -700h-60zM970 -7q-60 0 -98.5 41.5t-38.5 101.5q0 86 56 152.5t135 66.5q60 0 98.5 -41.5t38.5 -101.5
q0 -86 -56 -152.5t-135 -66.5zM588 -7q-60 0 -98.5 41.5t-38.5 101.5q0 86 56 152.5t135 66.5q60 0 98.5 -41.5t38.5 -101.5q0 -86 -56 -152.5t-135 -66.5zM234 389q56 0 97 53.5t41 117.5q0 48 -24 76.5t-68 28.5q-56 0 -97 -53.5t-41 -117.5q0 -48 24 -76.5t68 -28.5z
M974 36q56 0 97 53.5t41 117.5q0 48 -24 76.5t-68 28.5q-56 0 -97 -53.5t-41 -117.5q0 -48 24 -76.5t68 -28.5zM592 36q56 0 97 53.5t41 117.5q0 48 -24 76.5t-68 28.5q-56 0 -97 -53.5t-41 -117.5q0 -48 24 -76.5t68 -28.5z" />
    <glyph glyph-name="guilsinglleft" unicode="&#x2039;" horiz-adv-x="311" 
d="M149 42l-104 209l2 8l216 209l36 -28l-192 -192l83 -184z" />
    <glyph glyph-name="guilsinglright" unicode="&#x203a;" horiz-adv-x="311" 
d="M47 41l-36 28l192 192l-83 184l41 22l104 -209l-2 -8z" />
    <glyph glyph-name="fraction" unicode="&#x2044;" horiz-adv-x="550" 
d="M-83 -98l697 856h59l-697 -856h-59z" />
    <glyph glyph-name="Euro" unicode="&#x20ac;" horiz-adv-x="684" 
d="M372 -12q-103 0 -170.5 69.5t-72.5 187.5h-92l13 48h80q3 65 21 123h-69l13 48h73q45 111 130.5 179.5t194.5 68.5q83 0 139 -44t80 -115l-45 -18q-27 64 -69.5 97t-113.5 33q-82 0 -151.5 -55t-109.5 -146h301l-13 -48h-306q-19 -62 -22 -123h296l-13 -48h-283
q5 -95 55 -152.5t135 -57.5q113 0 201 98l35 -30q-103 -115 -237 -115z" />
    <glyph glyph-name="published" unicode="&#x2117;" horiz-adv-x="830" 
d="M439 -12q-151 0 -256 105.5t-105 254.5v2q0 149 106 255.5t257 106.5t256 -105.5t105 -254.5v-2q0 -149 -106 -255.5t-257 -106.5zM439 16q141 0 237 97.5t96 236.5v2q0 138 -95 235t-236 97t-237 -97.5t-96 -236.5v-2q0 -138 95 -235t236 -97zM321 175v366h141
q66 0 104.5 -30t38.5 -85v-2q0 -58 -43 -89.5t-107 -31.5h-90v-128h-44zM365 344h91q48 0 76 20.5t28 57.5v2q0 76 -101 76h-94v-156z" />
    <glyph glyph-name="servicemark" unicode="&#x2120;" horiz-adv-x="708" 
d="M378 392l88 308h32l72 -183l168 183h41l-88 -308h-35l71 246l-167 -178h-5l-71 178l-71 -246h-35zM205 387q-39 0 -72.5 16.5t-53.5 43.5l26 21q42 -50 103 -50q34 0 56 16.5t22 42.5q0 17 -13.5 29.5t-49.5 26.5q-46 19 -66 36.5t-20 46.5q0 38 32.5 63.5t81.5 25.5
q70 0 109 -48l-25 -23q-37 40 -87 40q-33 0 -54 -16.5t-21 -37.5q0 -19 15.5 -31t53.5 -26q41 -16 60.5 -35t19.5 -47q0 -40 -33.5 -67t-83.5 -27z" />
    <glyph glyph-name="trademark" unicode="&#x2122;" horiz-adv-x="690" 
d="M360 392l88 308h32l72 -183l168 183h41l-88 -308h-35l71 246l-167 -178h-5l-71 178l-71 -246h-35zM154 392l78 274h-101l10 34h237l-10 -34h-101l-78 -274h-35z" />
    <glyph glyph-name="minus" unicode="&#x2212;" horiz-adv-x="620" 
d="M572 327h-484l13 50h484z" />
    <glyph glyph-name="Q.alt" horiz-adv-x="846" 
d="M692 -24l-72 85q-103 -74 -222 -74q-131 0 -216.5 86.5t-85.5 214.5q0 108 53.5 206t147 158t202.5 60q131 0 216.5 -86.5t85.5 -214.5q0 -90 -39 -175t-107 -146l75 -82zM398 34q103 0 190 63l-117 130l38 33l114 -134q58 54 91 129.5t33 155.5q0 109 -69 181.5
t-179 72.5q-96 0 -177 -54t-126.5 -140.5t-45.5 -182.5q0 -109 69 -181.5t179 -72.5z" />
    <glyph glyph-name="a.alt" horiz-adv-x="654" 
d="M259 -13q-89 0 -147 60.5t-58 154.5q0 134 86 227t202 93q79 0 130 -40.5t73 -102.5l35 131h49l-136 -510h-49l26 99q-94 -112 -211 -112zM265 33q96 0 175.5 82t79.5 183q0 75 -49.5 126.5t-126.5 51.5q-101 0 -169 -80t-68 -188q0 -78 44 -126.5t114 -48.5z" />
    <glyph glyph-name="aacute.alt" horiz-adv-x="654" 
d="M259 -13q-89 0 -147 60.5t-58 154.5q0 134 86 227t202 93q79 0 130 -40.5t73 -102.5l35 131h49l-136 -510h-49l26 99q-94 -112 -211 -112zM265 33q96 0 175.5 82t79.5 183q0 75 -49.5 126.5t-126.5 51.5q-101 0 -169 -80t-68 -188q0 -78 44 -126.5t114 -48.5zM371 595
l124 133l62 -30l-135 -103h-51z" />
    <glyph glyph-name="abreve.alt" horiz-adv-x="654" 
d="M259 -13q-89 0 -147 60.5t-58 154.5q0 134 86 227t202 93q79 0 130 -40.5t73 -102.5l35 131h49l-136 -510h-49l26 99q-94 -112 -211 -112zM265 33q96 0 175.5 82t79.5 183q0 75 -49.5 126.5t-126.5 51.5q-101 0 -169 -80t-68 -188q0 -78 44 -126.5t114 -48.5zM403 593
q-58 0 -86 30t-18 82h38q-1 -32 16.5 -48t58.5 -16q72 0 110 64h43q-18 -52 -62 -82t-100 -30z" />
    <glyph glyph-name="acircumflex.alt" horiz-adv-x="654" 
d="M259 -13q-89 0 -147 60.5t-58 154.5q0 134 86 227t202 93q79 0 130 -40.5t73 -102.5l35 131h49l-136 -510h-49l26 99q-94 -112 -211 -112zM265 33q96 0 175.5 82t79.5 183q0 75 -49.5 126.5t-126.5 51.5q-101 0 -169 -80t-68 -188q0 -78 44 -126.5t114 -48.5zM276 595
l133 122h40l67 -122h-44l-52 68l-96 -68h-48z" />
    <glyph glyph-name="adieresis.alt" horiz-adv-x="654" 
d="M259 -13q-89 0 -147 60.5t-58 154.5q0 134 86 227t202 93q79 0 130 -40.5t73 -102.5l35 131h49l-136 -510h-49l26 99q-94 -112 -211 -112zM265 33q96 0 175.5 82t79.5 183q0 75 -49.5 126.5t-126.5 51.5q-101 0 -169 -80t-68 -188q0 -78 44 -126.5t114 -48.5zM447 595
l22 80h69l-22 -80h-69zM284 595l22 80h69l-22 -80h-69z" />
    <glyph glyph-name="agrave.alt" horiz-adv-x="654" 
d="M259 -13q-89 0 -147 60.5t-58 154.5q0 134 86 227t202 93q79 0 130 -40.5t73 -102.5l35 131h49l-136 -510h-49l26 99q-94 -112 -211 -112zM265 33q96 0 175.5 82t79.5 183q0 75 -49.5 126.5t-126.5 51.5q-101 0 -169 -80t-68 -188q0 -78 44 -126.5t114 -48.5zM372 595
l-79 103l62 30l52 -133h-35z" />
    <glyph glyph-name="amacron.alt" horiz-adv-x="654" 
d="M259 -13q-89 0 -147 60.5t-58 154.5q0 134 86 227t202 93q79 0 130 -40.5t73 -102.5l35 131h49l-136 -510h-49l26 99q-94 -112 -211 -112zM265 33q96 0 175.5 82t79.5 183q0 75 -49.5 126.5t-126.5 51.5q-101 0 -169 -80t-68 -188q0 -78 44 -126.5t114 -48.5zM256 621
l13 47h304l-13 -47h-304z" />
    <glyph glyph-name="aogonek.alt" horiz-adv-x="654" 
d="M358 -98q0 50 88 107l24 90q-94 -112 -211 -112q-89 0 -147 60.5t-58 154.5q0 134 86 227t202 93q79 0 130 -40.5t73 -102.5l35 131h49l-136 -510h-4q-80 -52 -80 -90q0 -30 66 -38l-9 -36q-108 7 -108 66zM265 33q96 0 175.5 82t79.5 183q0 75 -49.5 126.5t-126.5 51.5
q-101 0 -169 -80t-68 -188q0 -78 44 -126.5t114 -48.5z" />
    <glyph glyph-name="aring.alt" horiz-adv-x="654" 
d="M259 -13q-89 0 -147 60.5t-58 154.5q0 134 86 227t202 93q79 0 130 -40.5t73 -102.5l35 131h49l-136 -510h-49l26 99q-94 -112 -211 -112zM265 33q96 0 175.5 82t79.5 183q0 75 -49.5 126.5t-126.5 51.5q-101 0 -169 -80t-68 -188q0 -78 44 -126.5t114 -48.5zM418 593
q-44 0 -72 26.5t-28 65.5q0 44 36 76t82 32q44 0 72 -26.5t28 -65.5q0 -44 -36 -76t-82 -32zM419 625q33 0 57 22t24 53q0 26 -17.5 43.5t-47.5 17.5q-33 0 -57 -22t-24 -53q0 -26 17.5 -43.5t47.5 -17.5z" />
    <glyph glyph-name="aring.alt2" horiz-adv-x="571" 
d="M190 -12q-69 0 -118 37.5t-49 105.5q0 84 64 134.5t166 50.5q90 0 196 -29l4 14q7 26 7 51q0 58 -39.5 89t-114.5 31q-70 0 -148 -27l-9 44q66 23 124 27q-24 26 -24 61q0 44 36 76t82 32q44 0 72 -26.5t28 -65.5q0 -60 -60 -91q101 -37 101 -143q0 -29 -10 -67l-78 -292
h-48l23 88q-84 -100 -205 -100zM199 33q75 0 141.5 47.5t86.5 122.5l12 45q-96 24 -193 24q-76 0 -123.5 -37.5t-47.5 -97.5q0 -47 33.5 -75.5t90.5 -28.5zM350 517q33 0 57 22t24 53q0 26 -17.5 43.5t-47.5 17.5q-33 0 -57 -22t-24 -53q0 -26 17.5 -43.5t47.5 -17.5z" />
    <glyph glyph-name="aringacute.alt" horiz-adv-x="654" 
d="M435 820l121 118l55 -30l-128 -88h-48zM259 -13q-89 0 -147 60.5t-58 154.5q0 134 86 227t202 93q79 0 130 -40.5t73 -102.5l35 131h49l-136 -510h-49l26 99q-94 -112 -211 -112zM265 33q96 0 175.5 82t79.5 183q0 75 -49.5 126.5t-126.5 51.5q-101 0 -169 -80t-68 -188
q0 -78 44 -126.5t114 -48.5zM418 593q-44 0 -72 26.5t-28 65.5q0 44 36 76t82 32q44 0 72 -26.5t28 -65.5q0 -44 -36 -76t-82 -32zM419 625q33 0 57 22t24 53q0 26 -17.5 43.5t-47.5 17.5q-33 0 -57 -22t-24 -53q0 -26 17.5 -43.5t47.5 -17.5z" />
    <glyph glyph-name="aringacute.alt2" horiz-adv-x="571" 
d="M371 724l121 118l55 -30l-128 -88h-48zM190 -12q-69 0 -118 37.5t-49 105.5q0 84 64 134.5t166 50.5q90 0 196 -29l4 14q7 26 7 51q0 58 -39.5 89t-114.5 31q-70 0 -148 -27l-9 44q66 23 124 27q-24 26 -24 61q0 44 36 76t82 32q44 0 72 -26.5t28 -65.5q0 -60 -60 -91
q101 -37 101 -143q0 -29 -10 -67l-78 -292h-48l23 88q-84 -100 -205 -100zM199 33q75 0 141.5 47.5t86.5 122.5l12 45q-96 24 -193 24q-76 0 -123.5 -37.5t-47.5 -97.5q0 -47 33.5 -75.5t90.5 -28.5zM350 517q33 0 57 22t24 53q0 26 -17.5 43.5t-47.5 17.5q-33 0 -57 -22
t-24 -53q0 -26 17.5 -43.5t47.5 -17.5z" />
    <glyph glyph-name="atilde.alt" horiz-adv-x="654" 
d="M259 -13q-89 0 -147 60.5t-58 154.5q0 134 86 227t202 93q79 0 130 -40.5t73 -102.5l35 131h49l-136 -510h-49l26 99q-94 -112 -211 -112zM265 33q96 0 175.5 82t79.5 183q0 75 -49.5 126.5t-126.5 51.5q-101 0 -169 -80t-68 -188q0 -78 44 -126.5t114 -48.5zM291 586
l-35 9q23 53 45.5 73t53.5 20q19 0 61 -20.5t59 -20.5q18 0 30.5 10.5t28.5 39.5l35 -9q-23 -53 -45.5 -73t-53.5 -20q-20 0 -62 20.5t-58 20.5q-18 0 -30.5 -10.5t-28.5 -39.5z" />
    <glyph glyph-name="three.alt" horiz-adv-x="600" 
d="M260 -12q-87 0 -152.5 34.5t-100.5 91.5l45 27q70 -106 211 -106q89 0 145.5 44.5t56.5 109.5q0 71 -60 106t-156 35h-30l12 46h40q124 0 194.5 42t70.5 116q0 59 -46 94t-118 35q-102 0 -190 -69l-32 35q99 81 222 81q92 0 155.5 -46.5t63.5 -126.5q0 -77 -56 -124.5
t-155 -63.5q62 -18 101 -57.5t39 -100.5q0 -86 -75.5 -144.5t-184.5 -58.5z" />
    <glyph glyph-name="registered.alt" horiz-adv-x="830" 
d="M439 -12q-151 0 -256 105.5t-105 254.5v2q0 149 106 255.5t257 106.5t256 -105.5t105 -254.5v-2q0 -149 -106 -255.5t-257 -106.5zM439 16q141 0 237 97.5t96 236.5v2q0 138 -95 235t-236 97t-237 -97.5t-96 -236.5v-2q0 -138 95 -235t236 -97zM301 177v366h164
q70 0 107 -37q28 -28 28 -68v-2q0 -43 -27 -69.5t-73 -35.5l122 -154h-56l-116 147h-106v-147h-43zM344 364h114q43 0 70 18.5t27 51.5v2q0 30 -24.5 48t-67.5 18h-119v-138z" />
    <glyph glyph-name="NUL" horiz-adv-x="0" 
 />
    <glyph glyph-name="hfjslug" horiz-adv-x="694" 
d="M644 -200h-208l-8 14h-163l-8 -14h-207v303q14 0 23 9.5t9 22.5t-9.5 22.5t-22.5 9.5v554h100l30 79h334l29 -79h101v-921zM400 563v-172h15v78h38v14h-38v66h43v14h-58zM184 563v-172h15v79h47v-79h15v172h-15v-79h-47v79h-15zM460 394q10 -4 21 -4q31 0 31 36v137h-16
v-137q0 -22 -16 -22q-8 0 -20 5v-15zM371 465l-13 3q-4 -18 -8 -30h-1l-16 31q23 21 23 42q0 31 -27 31q-12 0 -20 -9t-8 -22t14 -39q-23 -18 -23 -47q0 -16 8 -26.5t21 -10.5q19 0 29 24h1l12 -24l12 6l-17 32q6 14 13 39zM523 323v-46h8v12l8 8l15 -20h10l-20 26l18 20
h-10l-20 -24h-1v24h-8zM488 292l10 -15h9l-12 17q10 4 10 14q0 15 -17 15h-20v-46h8v15h12zM426 276q10 0 17 7t7 17q0 9 -7 16.5t-17 7.5t-17 -7.5t-7 -16.5q0 -10 7 -17t17 -7zM370 301l-13 22h-9l18 -29v-17h8v17l18 29h-9zM193 323v-46h34v7h-26v13h23v7h-23v12h26v7
h-34zM132 323v-46h8v32l25 -32h7v46h-8v-32l-25 32h-7zM241 323l14 -47h8l11 34h1l11 -34h8l14 47h-8l-10 -35h-1l-11 35h-7l-11 -35h-1l-10 35h-8zM327 479q-12 22 -12 32q0 19 14 19q13 0 13 -19q0 -15 -15 -32zM342 423q-8 -21 -20 -21q-16 0 -16 25q0 19 16 35zM487 299
h-11v17h11q10 0 10 -8q0 -9 -10 -9zM426 283q-16 0 -16 17q0 6 4.5 11.5t11.5 5.5t11.5 -5.5t4.5 -11.5q0 -17 -16 -17z" />
    <glyph glyph-name="i.dot" horiz-adv-x="250" 
d="M199 643l18 67h61l-18 -67h-61zM32 0l137 510h49l-137 -510h-49z" />
    <glyph glyph-name="caron.alt" 
d="M300 581l56 149h61v-3l-88 -146h-29z" />
    <glyph glyph-name="acute.cap" 
d="M323 765l124 118l60 -28l-131 -90h-53z" />
    <glyph glyph-name="hungarumlaut.cap" 
d="M238 765l124 118l60 -28l-131 -90h-53zM378 765l124 118l60 -28l-131 -90h-53z" />
    <glyph glyph-name="grave.cap" 
d="M380 883l62 -118h-37l-83 90z" />
    <glyph glyph-name="circumflex.cap" 
d="M260 765l132 107h46l74 -107h-50l-56 61l-90 -61h-56z" />
    <glyph glyph-name="caron.cap" 
d="M541 872l-132 -107h-46l-74 107h50l56 -61l90 61h56z" />
    <glyph glyph-name="breve.cap" 
d="M385 763q-56 0 -85.5 26.5t-20.5 73.5h42q1 -26 18 -39t57 -13q71 0 103 52h46q-16 -47 -60 -73.5t-100 -26.5z" />
    <glyph glyph-name="tilde.cap" 
d="M275 756l-36 10q22 47 44.5 67.5t51.5 20.5q20 0 62.5 -19t57.5 -19q18 0 30 10t28 36l36 -10q-22 -47 -44.5 -67t-51.5 -20q-20 0 -62.5 19t-57.5 19q-18 0 -30 -10t-28 -37z" />
    <glyph glyph-name="macron.cap" 
d="M239 791l13 49h310l-13 -49h-310z" />
    <glyph glyph-name="dieresis.cap" 
d="M437 765l21 76h73l-21 -76h-73zM261 765l21 76h74l-21 -76h-74z" />
    <glyph glyph-name="dotaccent.cap" 
d="M348 765l21 76h76l-21 -76h-76z" />
    <glyph glyph-name="ring.cap" 
d="M397 763q-41 0 -67.5 23.5t-26.5 59.5q0 45 36.5 76t84.5 31q41 0 67.5 -23.5t26.5 -59.5q0 -45 -36.5 -76t-84.5 -31zM401 795q31 0 54.5 20.5t23.5 51.5q0 23 -15.5 38.5t-43.5 15.5q-31 0 -54.5 -20.5t-23.5 -51.5q0 -25 16.5 -39.5t42.5 -14.5z" />
    </font>
</defs>
</svg>
